Поиск

(Jazz) Ralph Towner - Solo Concert - 1980, FLAC (image + .cue), lossless

(Jazz) Ralph Towner - Solo Concert - 1980, FLAC (image + .cue), lossless
Ralph Towner - Solo Concert
Страна: USA
Жанр: Jazz
Год выпуска: 1980
Формат: FLAC (image + .cue)
Битрейт аудио: lossless
Продолжительность: 47:33
Трэклист:
1. Spirit Lake
2. Ralph's Piano Waltz
3. Train Of Thought
4. Zoetrope
5. Nardis
6. Chelsea Courtyard
7. Timeless
Доп. информация:
Ralph Towner: 12-string and classical guitars
Recorded October 1979 during concerts in Munchen (Amerika Haus) and Zurich (Limmathaus)
ECM 1173
 
EAC Report
Exact Audio Copy V0.99 prebeta 4 from 23. January 2008
EAC extraction logfile from 10. March 2008, 20:42
Ralph Towner / Solo Concert
Used drive : MATSHITADVD-RAM UJ-840S Adapter: 1 ID: 0
Read mode : Secure
Utilize accurate stream : Yes
Defeat audio cache : Yes
Make use of C2 pointers : No
Read offset correction : 102
Overread into Lead-In and Lead-Out : No
Fill up missing offset samples with silence : Yes
Delete leading and trailing silent blocks : No
Null samples used in CRC calculations : No
Used interface : Installed external ASPI interface
Used output format : User Defined Encoder
Selected bitrate : 1024 kBit/s
Quality : High
Add ID3 tag : No
Command line compressor : C:\Program Files\Exact Audio Copy\FLAC\FLAC.EXE
Additional command line options : -6 -V -T "ARTIST=%a" -T "TITLE=%t" -T "ALBUM=%g" -T "DATE=%y" -T "TRACKNUMBER=%n"
-T "GENRE=%m" -T "COMMENT=%e" %s -o %d
TOC of the extracted CD
Track | Start | Length | Start sector | End sector
---------------------------------------------------------
1 | 0:00.32 | 9:21.00 | 32 | 42106
2 | 9:21.32 | 7:35.30 | 42107 | 76261
3 | 16:56.62 | 6:08.08 | 76262 | 103869
4 | 23:04.70 | 6:13.55 | 103870 | 131899
5 | 29:18.50 | 5:42.27 | 131900 | 157576
6 | 35:01.02 | 7:09.58 | 157577 | 189809
7 | 42:10.60 | 5:21.67 | 189810 | 213951
Range status and errors
Selected range
Filename F:\u\Ralph Towner\Ralph Towner - Solo Concert.wav
Peak level 83.8 %
Range quality 100.0 %
Copy CRC ACF48F29
Copy OK
No errors occurred
AccurateRip summary
Track 1 cannot be verified as accurate (confidence 1) [A7847396], AccurateRip returned [88A6FF4F]
Track 2 cannot be verified as accurate (confidence 1) [7251AF0B], AccurateRip returned [F666D867]
Track 3 cannot be verified as accurate (confidence 1) [C5500137], AccurateRip returned [1C5B0B98]
Track 4 cannot be verified as accurate (confidence 1) [01CD832E], AccurateRip returned [00422E72]
Track 5 cannot be verified as accurate (confidence 1) [CA9CF234], AccurateRip returned [DF8A6C70]
Track 6 cannot be verified as accurate (confidence 1) [C1726714], AccurateRip returned [D4F51CD6]
Track 7 cannot be verified as accurate (confidence 1) [F6580DE5], AccurateRip returned [C1D7C761]
No tracks could be verified as accurate
You may have a different pressing from the one(s) in the database
End of status report
ТОРРЕНТ ПЕРЕЗАЛИТ 24.05.2017, 12:50 МСК по техническим причинам. Содержимое не менялось.
Просьба ко всем ранее скачавшим, присоединяться к раздаче.
01:32
342
Нет комментариев. Ваш будет первым!