Вы используете незарегистрированную версию компонента "Вкладки"!

Поиск

(Jazz, Progressive Big Band) The Mike Westbrook Concert Band- Marching Song Vol 1 & 2 (remastered) - 2009, FLAC (tracks+.cue), lossless, EAC, log 100%

(Jazz, Progressive Big Band) The Mike Westbrook Concert Band- Marching Song Vol 1 & 2 (remastered) - 2009, FLAC (tracks+.cue), lossless, EAC, log 100%
Треклист:
The Mike Westbrook Concert Band- Marching Song Vol 1 & 2 (remastered)
Жанр: Jazz, Progressive Big Band
Год выпуска диска: 2009
Производитель диска: UK - Righteous
Аудио кодек: FLAC
Тип рипа: tracks+.cue
Битрейт аудио: lossless, EAC, log 100%
Продолжительность: 48:12 & 56:48
Трэклист:
Volume One CD
01 Hooray! (Westbrook)
02 Landscape (Westbrook)
03 Waltz (for Joanna) (Westbrook)
04 Landscape (II) (Westbrook)
05 Other World (Westbrook)
06 Marching Song (Westbrook)
Volume Two CD
01 Transition (Westbrook) trombone solo Griffiths
02 Home (Westbrook)
03 Rosie (Westbrook) trumpet solo Holdsworth
04 Prelude (Surman)
05 Tension (Surman) sax duet Surman Skidmore, trombone solo Griffiths
06 Introduction (Westbrook)
07 Ballad (Westbrook) alto solo Osborne
08 Conflict (Westbrook) tuba solo Smith
09 Requiem (Westbrook)
10 Tarnished (Surman) soprano solo Surman, alto solo Osborne
11 Memorial (Westbrook) drum solo Jackson
 
Игроки
The players:
Mike Westbrook piano
Dave Holdsworth trumpet, fluegel horn
Kenny Wheeler trumpet, fluegel horn
Greg Bowen trumpet
Tony Fisher trumpet
Henry Lowther trumpet
Ronnie Hughes trumpet
Malcolm Griffiths trombone
Paul Rutherford trombone
Mike Gibbs trombone
Eddie Harvey trombone
Tom Bennelick French horn
Martin Fry tuba
George Smith tuba
John Surman baritone, soprano saxes
Mike Osborne alto sax, clarinet
Bernie Living alto sax, flute, piccolo
Alan Skidmore tenor sax, flute
Nisar Ahmed Khan tenor sax
John Warren Alto, baritone saxes, flute
Brian Smith tenor sax
Harry Miller bass
Barre Philips bass
Chris Lawrence bass
Alan Jackson drums
John Marshall drums
 
Дщп EAC CD1
Exact Audio Copy V0.99 prebeta 4 from 23. January 2008
EAC extraction logfile from 2. November 2009, 20:47
Mike Westbrook / Marching Song, Vol.1
Used drive : Optiarc DVD RW AD-7200S Adapter: 2 ID: 1
Read mode : Secure
Utilize accurate stream : Yes
Defeat audio cache : Yes
Make use of C2 pointers : No
Read offset correction : 48
Overread into Lead-In and Lead-Out : No
Fill up missing offset samples with silence : Yes
Delete leading and trailing silent blocks : No
Null samples used in CRC calculations : Yes
Used interface : Native Win32 interface for Win NT & 2000
Gap handling : Appended to previous track
Used output format : User Defined Encoder
Selected bitrate : 768 kBit/s
Quality : High
Add ID3 tag : No
Command line compressor : D:\Program Files\FLAC\flac.exe
Additional command line options : -V -8 -T "artist=%a" -T "title=%t" -T "album=%g" -T "date=%y" -T "tracknumber=%n" -T "genre=%m" %s
TOC of the extracted CD
Track | Start | Length | Start sector | End sector
---------------------------------------------------------
1 | 0:00.00 | 6:23.50 | 0 | 28774
2 | 6:23.50 | 15:25.26 | 28775 | 98175
3 | 21:49.01 | 5:49.43 | 98176 | 124393
4 | 27:38.44 | 0:39.63 | 124394 | 127381
5 | 28:18.32 | 8:23.51 | 127382 | 165157
6 | 36:42.08 | 11:28.38 | 165158 | 216795
Track 1
Filename I:\Music\WCD\01. Hooray! (Mike Westbrook - Marching Song, Vol.1 - 1969).wav
Pre-gap length 0:00:02.00
Peak level 100.0 %
Track quality 100.0 %
Test CRC DC2AF87F
Copy CRC DC2AF87F
Accurately ripped (confidence 1) [14EFD483]
Copy OK
Track 2
Filename I:\Music\WCD\02. Landscape (Mike Westbrook - Marching Song, Vol.1 - 1969).wav
Peak level 100.0 %
Track quality 100.0 %
Test CRC 156B4A5D
Copy CRC 156B4A5D
Accurately ripped (confidence 1) [9CCB5D23]
Copy OK
Track 3
Filename I:\Music\WCD\03. Waltz (for Joanna) (Mike Westbrook - Marching Song, Vol.1 - 1969).wav
Peak level 100.0 %
Track quality 100.0 %
Test CRC 92E1883F
Copy CRC 92E1883F
Accurately ripped (confidence 1) [4E106DD6]
Copy OK
Track 4
Filename I:\Music\WCD\04. Landscape (II) (Mike Westbrook - Marching Song, Vol.1 - 1969).wav
Peak level 100.0 %
Track quality 99.7 %
Test CRC D18E9E66
Copy CRC D18E9E66
Accurately ripped (confidence 1) [25710C7B]
Copy OK
Track 5
Filename I:\Music\WCD\05. Other World (Mike Westbrook - Marching Song, Vol.1 - 1969).wav
Peak level 100.0 %
Track quality 100.0 %
Test CRC 0A26B905
Copy CRC 0A26B905
Accurately ripped (confidence 1) [2EFED892]
Copy OK
Track 6
Filename I:\Music\WCD\06. Marching Song (Mike Westbrook - Marching Song, Vol.1 - 1969).wav
Peak level 100.0 %
Track quality 100.0 %
Test CRC CB42BDF5
Copy CRC CB42BDF5
Accurately ripped (confidence 1) [B063311C]
Copy OK
All tracks accurately ripped
No errors occurred
End of status report
 
Дщп EAC CD2
Exact Audio Copy V0.99 prebeta 4 from 23. January 2008
EAC extraction logfile from 2. November 2009, 21:24
Mike Westbrook / Marching Song, Vol. 2
Used drive : Optiarc DVD RW AD-7200S Adapter: 2 ID: 1
Read mode : Secure
Utilize accurate stream : Yes
Defeat audio cache : Yes
Make use of C2 pointers : No
Read offset correction : 48
Overread into Lead-In and Lead-Out : No
Fill up missing offset samples with silence : Yes
Delete leading and trailing silent blocks : No
Null samples used in CRC calculations : Yes
Used interface : Native Win32 interface for Win NT & 2000
Gap handling : Appended to previous track
Used output format : User Defined Encoder
Selected bitrate : 768 kBit/s
Quality : High
Add ID3 tag : No
Command line compressor : D:\Program Files\FLAC\flac.exe
Additional command line options : -V -8 -T "artist=%a" -T "title=%t" -T "album=%g" -T "date=%y" -T "tracknumber=%n" -T "genre=%m" %s
TOC of the extracted CD
Track | Start | Length | Start sector | End sector
---------------------------------------------------------
1 | 0:00.00 | 5:11.68 | 0 | 23392
2 | 5:11.68 | 7:35.24 | 23393 | 57541
3 | 12:47.17 | 6:34.36 | 57542 | 87127
4 | 19:21.53 | 4:40.25 | 87128 | 108152
5 | 24:02.03 | 4:33.27 | 108153 | 128654
6 | 28:35.30 | 5:58.61 | 128655 | 155565
7 | 34:34.16 | 2:26.44 | 155566 | 166559
8 | 37:00.60 | 10:44.52 | 166560 | 214911
9 | 47:45.37 | 0:51.29 | 214912 | 218765
10 | 48:36.66 | 5:56.02 | 218766 | 245467
11 | 54:32.68 | 2:15.66 | 245468 | 255658
Track 1
Filename I:\Music\WCD\01. Track01 (Mike Westbrook - Marching Song, Vol. 2 - 1969).wav
Pre-gap length 0:00:02.00
Peak level 99.9 %
Track quality 100.0 %
Test CRC C77E06B4
Copy CRC C77E06B4
Accurately ripped (confidence 1) [DAF1F509]
Copy OK
Track 2
Filename I:\Music\WCD\02. Track02 (Mike Westbrook - Marching Song, Vol. 2 - 1969).wav
Peak level 99.9 %
Track quality 100.0 %
Test CRC 327DA0DE
Copy CRC 327DA0DE
Accurately ripped (confidence 1) [E86DADCD]
Copy OK
Track 3
Filename I:\Music\WCD\03. Track03 (Mike Westbrook - Marching Song, Vol. 2 - 1969).wav
Peak level 100.0 %
Track quality 99.9 %
Test CRC 0C4750E2
Copy CRC 0C4750E2
Accurately ripped (confidence 1) [B6F37EC4]
Copy OK
Track 4
Filename I:\Music\WCD\04. Track04 (Mike Westbrook - Marching Song, Vol. 2 - 1969).wav
Peak level 100.0 %
Track quality 100.0 %
Test CRC 3709F6AA
Copy CRC 3709F6AA
Accurately ripped (confidence 1) [2C22C9F1]
Copy OK
Track 5
Filename I:\Music\WCD\05. Track05 (Mike Westbrook - Marching Song, Vol. 2 - 1969).wav
Peak level 100.0 %
Track quality 100.0 %
Test CRC BD85C4A8
Copy CRC BD85C4A8
Accurately ripped (confidence 1) [6A3DEC53]
Copy OK
Track 6
Filename I:\Music\WCD\06. Track06 (Mike Westbrook - Marching Song, Vol. 2 - 1969).wav
Peak level 100.0 %
Track quality 100.0 %
Test CRC 15A43BB7
Copy CRC 15A43BB7
Accurately ripped (confidence 1) [616D998A]
Copy OK
Track 7
Filename I:\Music\WCD\07. Track07 (Mike Westbrook - Marching Song, Vol. 2 - 1969).wav
Peak level 100.0 %
Track quality 100.0 %
Test CRC 4D9AD126
Copy CRC 4D9AD126
Accurately ripped (confidence 1) [42C972AA]
Copy OK
Track 8
Filename I:\Music\WCD\08. Track08 (Mike Westbrook - Marching Song, Vol. 2 - 1969).wav
Peak level 100.0 %
Track quality 100.0 %
Test CRC 17E223D8
Copy CRC 17E223D8
Accurately ripped (confidence 1) [C0403BB3]
Copy OK
Track 9
Filename I:\Music\WCD\09. Track09 (Mike Westbrook - Marching Song, Vol. 2 - 1969).wav
Peak level 100.0 %
Track quality 100.0 %
Test CRC 24FDD3A9
Copy CRC 24FDD3A9
Accurately ripped (confidence 1) [C3B1BBAF]
Copy OK
Track 10
Filename I:\Music\WCD\10. Track10 (Mike Westbrook - Marching Song, Vol. 2 - 1969).wav
Peak level 100.0 %
Track quality 100.0 %
Test CRC A65D5C84
Copy CRC A65D5C84
Accurately ripped (confidence 1) [B25A6F10]
Copy OK
Track 11
Filename I:\Music\WCD\11. Track11 (Mike Westbrook - Marching Song, Vol. 2 - 1969).wav
Peak level 99.9 %
Track quality 100.0 %
Test CRC 4CE8B18C
Copy CRC 4CE8B18C
Accurately ripped (confidence 1) [DF60335E]
Copy OK
All tracks accurately ripped
No errors occurred
End of status report
 
О компании:
The brilliant 3rd album from Mike Westbrook -- a sharp-edged, two volume set with a scathing anti-war theme! The work is Westbrook's first total-concept album, and it's still one of his best -- written with an edge that's free from some of the more whimsical touches that showed up in Mike's later years, and played by a core group of British avant soloists with searing intensity! You've never heard large group scoring like this -- bold, ambitious, and quite different than most of what's come before. And although the whole thing sounds as if it's going to fall apart at any moment, it always snaps back into a sharp focus just in the nick of time -- with brilliant results that bring the same sense of surprise that you might get from, say, a classic album from Charles Mingus or Archie Shepp! Players include Kenny Wheeler and Henry Lowther on trumpets, Mike Gibbs and Paul Rutherford on trombones, John Surman on baritone and soprano sax, Mike Osborne on alto and clarinet, Alan Skidmore on tenor and flute, Brian Smith on tenor, and Harry Miller and Barre Phillips on bass. This set features both volumes of the recording -- with titles that include "Landscape", "Hooray", "Other World", "Marching Song", "Transition", "Rosie", "Tension", "Ballad", "Conflict", and "Requiem"
По всем вопросам пишите личное сообщение пользователю M0p94ok.
16:12
163
Нет комментариев. Ваш будет первым!