Поиск

(Jazz, Post-Bop) Niels Lan Doky, Niels Pedersen, Alex Riel - Misty Dawn - 1994, FLAC (image+.cue), lossless

Треклист:
Niels Lan Doky, NHØP, Alex Riel - Misty Dawn
Жанр: Jazz, Post-Bop
Год выпуска диска: 1994
Производитель диска: Denmark, Columbia
Аудио кодек: FLAC
Тип рипа: image+.cue
Продолжительность: 54:22
Рип: hqshare, aesl
Трэклист:
01. Ach Vaermland Du Skoena [07:49]
02. Rough Edges [04:04]
03. The Shadow Of Your Smile [07:07]
04. Misty Dawn [03:41]
05. Things [00:57]
06. The Truth [05:00]
07. Pax Americana [06:33]
08. For All We Know [05:03]
09. Serial Thriller [04:43]
10. So Fine [04:40]
11. All The Things You Are [04:41]
Состав:
Niels Lan Doky - piano
Niels-Henning Ørsted Pedersen - bass
Alex Riel - drums
 
EAC Log
EAC extraction logfile from 6. July 2006, 13:38 for CD
Niels Lan Doky / Misty Dawn
Used drive  : HL-DT-STDVD-ROM GDR8161B   Adapter: 1  ID: 0
Read mode   : Secure with NO C2, accurate stream, disable cache
Read offset correction : 102
Overread into Lead-In and Lead-Out : No
Used output format : C:\Audio\EAC\Flac\flac.exe   (User Defined Encoder)
                     320 kBit/s
                     Additional command line options : --best -V -T "date=%y" -T "genre=%m" %s
Other options      :
    Fill up missing offset samples with silence : Yes
    Delete leading and trailing silent blocks : No
    Installed external ASPI interface
Range status and errors
Selected range
     Filename C:\Music\Niels.Lan.Doky_Misty.dawn_(N.H.O.P-A.Riel)[eac.flac.cue.covers]\CDImage.flac.wav
     Peak level 99.3 %
     Range quality 100.0 %
     CRC 2DBB9ACC
     Copy OK
No errors occured
End of status report
 
 
CUE
PERFORMER "Niels Lan Doky"
TITLE "Misty Dawn"
FILE "CDImage.flac" WAVE
  TRACK 01 AUDIO
    TITLE "Ach Vaermland Du Skoena"
    PERFORMER "Niels Lan Doky"
    INDEX 01 00:00:00
  TRACK 02 AUDIO
    TITLE "Rough Edges"
    PERFORMER "Niels Lan Doky"
    INDEX 00 07:48:65
    INDEX 01 07:49:52
  TRACK 03 AUDIO
    TITLE "The Shadow Of Your Smile"
    PERFORMER "Niels Lan Doky"
    INDEX 00 11:51:30
    INDEX 01 11:54:05
  TRACK 04 AUDIO
    TITLE "Misty Dawn"
    PERFORMER "Niels Lan Doky"
    INDEX 00 18:58:07
    INDEX 01 19:01:12
  TRACK 05 AUDIO
    TITLE "Things"
    PERFORMER "Niels Lan Doky"
    INDEX 00 22:41:45
    INDEX 01 22:42:72
  TRACK 06 AUDIO
    TITLE "The Truth"
    PERFORMER "Niels Lan Doky"
    INDEX 00 23:38:57
    INDEX 01 23:40:10
  TRACK 07 AUDIO
    TITLE "Pax Americana"
    PERFORMER "Niels Lan Doky"
    INDEX 00 28:38:15
    INDEX 01 28:40:62
  TRACK 08 AUDIO
    TITLE "For All We Know"
    PERFORMER "Niels Lan Doky"
    INDEX 00 35:08:62
    INDEX 01 35:13:62
  TRACK 09 AUDIO
    TITLE "Serial Thriller"
    PERFORMER "Niels Lan Doky"
    INDEX 00 40:13:47
    INDEX 01 40:16:62
  TRACK 10 AUDIO
    TITLE "So Fine"
    PERFORMER "Niels Lan Doky"
    INDEX 00 44:56:00
    INDEX 01 45:00:00
  TRACK 11 AUDIO
    TITLE "All The Things You Are"
    PERFORMER "Niels Lan Doky"
    INDEX 00 49:36:27
    INDEX 01 49:40:32
Download available for power users only.
10:48
189
Нет комментариев. Ваш будет первым!