Поиск

(Jazz,Post-bop,Neo-bop.) Roy Haynes Trio Featuring Danilo Perez & John Patitucci -The Roy Haynes Trio - 2000, FLAC (image+.cue), lossless

(Jazz,Post-bop,Neo-bop.) Roy Haynes Trio Featuring Danilo Perez & John Patitucci -The Roy Haynes Trio - 2000, FLAC (image+.cue), lossless
Треклист:
Roy Haynes Trio Featuring Danilo Perez & John Patitucci -The Roy Haynes Trio
Жанр: Jazz,Post-bop,Neo-bop.
Год выпуска диска: 2000
Производитель диска: Verve
Аудио кодек: FLAC
Тип рипа: image+.cue
Битрейт аудио: lossless
Продолжительность: 69:34
Трэклист:
The Studio Set
1. Wail 3:18 (Bad Powell)
2. Question And Answer 7:08 (Pat Metheny)
3. Shulie A Bop 3:35 (George Treadwell-Sarah Vaughan)
4. Dear Old Stockholm 6:05 (Traditional)
5. Easy To Remember 6:41 (Richard Rodgers-Lorenz Hart)
6. Folk Song 5:28 (Chick Corea)
The Live Set
7. Sippin' At Bells 7:07 (Miles Davis)
8. Bright Mississippi 9:39 (Thelonious Monk)
9. Prelude To A Kiss 7:58 (Duke Ellington-Irving Gordon-Irving Miles)
10. Green Chimneys 12:27 (Thelonious Monk)
Band:
Roy Haynes - drums
Danilo Perez - piano
John Patitucci - bass
Produced by Richard Seidel
Executive producer: Ted Kurland
 
About
Roy Haynes has had a long career, and the generically titled The Roy Haynes Trio featuring Danilo Perez and John Patitucci is a long CD, approaching 70 minutes, that attempts to recap that career in the form of new performances and, to a surprising extent, succeeds. The drummer had just turned 74 when this album was released, and had been recording since the 1940s. He took the opportunity of this collection with a new trio, which contained both studio and live recordings, to look back over that period by choosing tunes associated with many of the musicians he had worked with over the years. His tenure in Bud Powell's Modernists septet was recalled in the opening number, Powell's "Wail," which also served the purpose of establishing right off the bat that Haynes was still drumming with his usual power and aggressiveness. Then, Pat Metheny's Spanish-tinged "Question and Answer" harked back only to the late '80s and early '90s and his work with the guitarist. And so it went: Haynes' five-year tenure behind Sarah Vaughan was referenced on "Shulie a Bop," one of her scat numbers, while Miles Davis' "Sippin' at the Bells" and Thelonious Monk's "Bright Mississippi" and "Green Chimneys" reminded listeners of his periods with each. All of this made for a varied collection, but the trio format allowed plenty of room for the individual musicians to play extensively and put their marks on the disparate material. In fact, the effect was to suggest that the history of jazz since World War II, which has been perceived as a series of conflicting trends, actually coheres well. At least, it does when Roy Haynes is behind the drums.
— William Ruhlmann
 
EAC Log
Exact Audio Copy V0.99 prebeta 4 from 23. January 2008
Отчёт EAC об извлечении, выполненном 26. июня 2009, 1:26
Roy Haynes, Danilo Perez, John Patitucci / The Roy Haynes Trio
Дисковод: LITE-ON DVDRW LH-20A1H Adapter: 0 ID: 0
Режим чтения : Достоверность
Использование точного потока : Да
Отключение кэша аудио : Да
Использование указателей C2 : Нет
Коррекция смещения при чтении : 6
Способность читать области Lead-in и Lead-out : Нет
Заполнение пропущенных сэмплов тишиной : Да
Удаление блоков с тишиной в начале и конце : Нет
При вычислениях CRC использовались нулевые сэмплы : Да
Интерфейс : Установленный внешний ASPI-интерфейс
Выходной формат : Пользовательский кодировщик
Выбранный битрейт : 768 kBit/s
Качество : Высокий
Добавление ID3-тэга : Нет
Утилита сжатия : C:\Program Files\Exact Audio Copy\FLAC\FLAC.EXE
Дополнительные параметры : -6 -V -T "ARTIST=%a" -T "TITLE=%t" -T "ALBUM=%g" -T "DATE=%y" -T "TRACKNUMBER=%n" -T "GENRE=%m" -T "COMMENT=%e" %s -o %d
TOC извлечённого CD
Трек | Старт | Длительность | Начальный сектор | Конечный сектор
---------------------------------------------------------------------
1 | 0:00.00 | 3:19.25 | 0 | 14949
2 | 3:19.25 | 7:08.37 | 14950 | 47086
3 | 10:27.62 | 3:34.63 | 47087 | 63199
4 | 14:02.50 | 6:05.00 | 63200 | 90574
5 | 20:07.50 | 6:40.50 | 90575 | 120624
6 | 26:48.25 | 5:33.25 | 120625 | 145624
7 | 32:21.50 | 7:07.37 | 145625 | 177686
8 | 39:29.12 | 9:39.13 | 177687 | 221124
9 | 49:08.25 | 7:58.00 | 221125 | 256974
10 | 57:06.25 | 12:28.00 | 256975 | 313074
Характеристики диапазона извлечения и сообщения об ошибках
Выбранный диапазон
Имя файла G:\RAB\The Roy Haynes Trio\Roy Haynes, Danilo Perez, John Patitucci - The Roy Haynes Trio.wav
Пиковый уровень 100.0 %
Качество диапазона 100.0 %
CRC теста D8D2E098
CRC копии D8D2E098
Копирование... OK
Ошибок не произошло
AccurateRip: сводка
Трек 1 точное извлечение (доверие 7) [4713F9B6]
Трек 2 точное извлечение (доверие 7) [B238ABF8]
Трек 3 точное извлечение (доверие 7) [8ABB53D3]
Трек 4 точное извлечение (доверие 7) [B19B3949]
Трек 5 точное извлечение (доверие 7) [44CC9C51]
Трек 6 точное извлечение (доверие 7) [693C8BAE]
Трек 7 точное извлечение (доверие 7) [32C715FC]
Трек 8 точное извлечение (доверие 7) [DF390510]
Трек 9 точное извлечение (доверие 7) [B70809CB]
Трек 10 точное извлечение (доверие 7) [0222DAEF]
Все треки извлечены точно
Конец отчёта
Приватный:
Нет (DHT включён)
Размер:
456.58 Мб (478,757,378 байт) » файлов: 12
Участники:
0 раздают, 0 качают (0 участников всего)
Внешние участники:
8 раздают, 2 качают (10 участников всего) [ Обновить ]
For power users only: no seeders - write to support@pro-jazz.com. Для power user: нет сидеров - пишите на support@pro-jazz.com.
20:56
115
Нет комментариев. Ваш будет первым!