Поиск

(Jazz, Post-Bop, Latin, Soul) VA - Jazz Carnival (Blue Note Latin Jazz Grooves) - 2000, FLAC (tracks+.cue) lossless

(Jazz, Post-Bop, Latin, Soul) VA - Jazz Carnival (Blue Note Latin Jazz Grooves) - 2000, FLAC (tracks+.cue) lossless
Треклист:
Various Artists - Jazz Carnival (Blue Note Latin Jazz Grooves)
Жанр/Стиль: Jazz, Post-Bop, Latin, Soul
Страна-производитель диска: Greece
Год издания диска: 2000
Лейбл: Minos / EMI S.A.
Номер по каталогу: 7243 5 25407 2 3
Страна: USA
Источник: P2P
Наличие сканов в раздаче: да
Аудио кодек: FLAC
Тип рипа: tracks+.cue
Битрейт аудио: lossless
Продолжительность: 01:00:15
Треклист:
01. Art Pepper - Mambo De La Pinta (04:16)
02. Don Wilkerson - Senorita Eula (04:47)
03. Grant Green - Mambo Inn (05:50)
04. Hank Mobley - Recado Bossa Nova (08:13)
05. Freddie Roach - Mo' Greens Please (04:13)
06. Andrew Hill - Mira (06:21)
07. "Big" John Patton - Latona (07:22)
08. Donald Byrd - Ghana (07:17)
09. Stanley Turrentine - Walk On By (05:55)
10. Freddie Hubbard - One Mint Julep (06:01)
 
Log EAC
Exact Audio Copy V0.99 prebeta 5 from 4. May 2009
EAC extraction logfile from 8. May 2010, 10:17
Various Artists / Jazz Carnival (Blue Note Latin Jazz Grooves)
Used drive : HL-DT-STDVD-RAM GH22NP20 Adapter: 1 ID: 1
Read mode : Secure
Utilize accurate stream : Yes
Defeat audio cache : Yes
Make use of C2 pointers : No
Read offset correction : 102
Overread into Lead-In and Lead-Out : No
Fill up missing offset samples with silence : Yes
Delete leading and trailing silent blocks : No
Null samples used in CRC calculations : Yes
Used interface : Installed external ASPI interface
Gap handling : Appended to previous track
Used output format : User Defined Encoder
Selected bitrate : 1024 kBit/s
Quality : High
Add ID3 tag : No
Command line compressor : C:\Program Files\Exact Audio Copy\FLAC\FLAC.EXE
Additional command line options : -3 -V -T "ARTIST=%a" -T "TITLE=%t" -T "ALBUM=%g" -T "DATE=%y" -T "TRACKNUMBER=%n" -T "GENRE=%m" -T "COMMENT=%e" %s -o %d
Use compression offset : 48
TOC of the extracted CD
Track | Start | Length | Start sector | End sector
---------------------------------------------------------
1 | 0:00.00 | 4:16.58 | 0 | 19257
2 | 4:16.58 | 4:47.62 | 19258 | 40844
3 | 9:04.45 | 5:50.41 | 40845 | 67135
4 | 14:55.11 | 8:13.17 | 67136 | 104127
5 | 23:08.28 | 4:13.47 | 104128 | 123149
6 | 27:22.00 | 6:21.34 | 123150 | 151758
7 | 33:43.34 | 7:22.49 | 151759 | 184957
8 | 41:06.08 | 7:17.15 | 184958 | 217747
9 | 48:23.23 | 5:55.06 | 217748 | 244378
10 | 54:18.29 | 6:01.15 | 244379 | 271468
Track 1
Filename C:\New Folder\01 - Art Pepper - Mambo De La Pinta.wav
Pre-gap length 0:00:02.00
Peak level 94.6 %
Track quality 100.0 %
Copy CRC AAE8679E
Accurately ripped (confidence 1) [526D3EE9]
Copy OK
Track 2
Filename C:\New Folder\02 - Don Wilkerson - Senorita Eula.wav
Pre-gap length 0:00:01.10
Peak level 72.3 %
Track quality 100.0 %
Copy CRC FECAE440
Accurately ripped (confidence 1) [7AF49712]
Copy OK
Track 3
Filename C:\New Folder\03 - Grant Green - Mambo Inn.wav
Pre-gap length 0:00:01.08
Peak level 94.0 %
Track quality 100.0 %
Copy CRC CAFCE1BF
Accurately ripped (confidence 1) [468E6D42]
Copy OK
Track 4
Filename C:\New Folder\04 - Hank Mobley - Recado Bossa Nova.wav
Pre-gap length 0:00:01.01
Peak level 86.4 %
Track quality 100.0 %
Copy CRC 5AC8F0C2
Accurately ripped (confidence 1) [CAD47C75]
Copy OK
Track 5
Filename C:\New Folder\05 - Freddie Roach - Mo' Greens Please.wav
Pre-gap length 0:00:01.06
Peak level 79.7 %
Track quality 100.0 %
Copy CRC E34D6398
Accurately ripped (confidence 1) [6A5F6FA4]
Copy OK
Track 6
Filename C:\New Folder\06 - Andrew Hill - Mira.wav
Pre-gap length 0:00:01.05
Peak level 96.4 %
Track quality 100.0 %
Copy CRC 1DFE8544
Accurately ripped (confidence 1) [66BDB67F]
Copy OK
Track 7
Filename C:\New Folder\07 - 'Big' John Patton - Latona.wav
Pre-gap length 0:00:01.02
Peak level 90.9 %
Track quality 99.9 %
Copy CRC 9ABA7EBB
Accurately ripped (confidence 1) [4F7B53C7]
Copy OK
Track 8
Filename C:\New Folder\08 - Donald Byrd - Ghana.wav
Pre-gap length 0:00:00.70
Peak level 93.9 %
Track quality 100.0 %
Copy CRC E853DC2A
Accurately ripped (confidence 1) [9C42DB95]
Copy OK
Track 9
Filename C:\New Folder\09 - Stanley Turrentine - Walk On By.wav
Pre-gap length 0:00:00.63
Peak level 80.8 %
Track quality 100.0 %
Copy CRC 1FC10159
Accurately ripped (confidence 1) [7C50BFE4]
Copy OK
Track 10
Filename C:\New Folder\10 - Freddie Hubbard - One Mint Julep.wav
Pre-gap length 0:00:01.05
Peak level 88.5 %
Track quality 100.0 %
Copy CRC 8EDE985F
Accurately ripped (confidence 1) [9F806AA6]
Copy OK
All tracks accurately ripped
No errors occurred
End of status report
 
.CUE
REM GENRE Jazz
REM DATE 2000
REM DISCID 8C0E230A
REM COMMENT "ExactAudioCopy v0.99pb5"
PERFORMER "Various Artists"
TITLE "Jazz Carnival (Blue Note Latin Jazz Grooves)"
FILE "01 - Art Pepper - Mambo De La Pinta.wav" WAVE
TRACK 01 AUDIO
TITLE "Mambo De La Pinta"
PERFORMER "Art Pepper"
INDEX 01 00:00:00
TRACK 02 AUDIO
TITLE "Senorita Eula"
PERFORMER "Don Wilkerson"
INDEX 00 04:15:48
FILE "02 - Don Wilkerson - Senorita Eula.wav" WAVE
INDEX 01 00:00:00
TRACK 03 AUDIO
TITLE "Mambo Inn"
PERFORMER "Grant Green"
INDEX 00 04:46:54
FILE "03 - Grant Green - Mambo Inn.wav" WAVE
INDEX 01 00:00:00
TRACK 04 AUDIO
TITLE "Recado Bossa Nova"
PERFORMER "Hank Mobley"
INDEX 00 05:49:40
FILE "04 - Hank Mobley - Recado Bossa Nova.wav" WAVE
INDEX 01 00:00:00
TRACK 05 AUDIO
TITLE "Mo' Greens Please"
PERFORMER "Freddie Roach"
INDEX 00 08:12:11
FILE "05 - Freddie Roach - Mo' Greens Please.wav" WAVE
INDEX 01 00:00:00
TRACK 06 AUDIO
TITLE "Mira"
PERFORMER "Andrew Hill"
INDEX 00 04:12:42
FILE "06 - Andrew Hill - Mira.wav" WAVE
INDEX 01 00:00:00
TRACK 07 AUDIO
TITLE "Latona"
PERFORMER "'Big' John Patton"
INDEX 00 06:20:32
FILE "07 - 'Big' John Patton - Latona.wav" WAVE
INDEX 01 00:00:00
TRACK 08 AUDIO
TITLE "Ghana"
PERFORMER "Donald Byrd"
INDEX 00 07:21:54
FILE "08 - Donald Byrd - Ghana.wav" WAVE
INDEX 01 00:00:00
TRACK 09 AUDIO
TITLE "Walk On By"
PERFORMER "Stanley Turrentine"
INDEX 00 07:16:27
FILE "09 - Stanley Turrentine - Walk On By.wav" WAVE
INDEX 01 00:00:00
TRACK 10 AUDIO
TITLE "One Mint Julep"
PERFORMER "Freddie Hubbard"
INDEX 00 05:54:01
FILE "10 - Freddie Hubbard - One Mint Julep.wav" WAVE
INDEX 01 00:00:00
 
Log auCDtect TM
-----------------------
DON'T MODIFY THIS FILE
-----------------------
PERFORMER: auCDtect Task Manager, ver. 1.0.1 RC1 build 1.0.1.1
Copyright (c) 2008, 2009 y-soft. All rights reserved
http://y-soft.110mb.com
ANALYZER: auCDtect: CD records authenticity detector, version 0.8.2
Copyright (c) 2004 Oleg Berngardt. All rights reserved.
Copyright (c) 2004 Alexander Djourik. All rights reserved.
FILE: 01 - Art Pepper - Mambo De La Pinta.flac
Size: 28381924 Hash: 62ADC431D1EB343778F9F3F71CD6B200 Accuracy: -m0
Conclusion: CDDA 100%
Signature: BA82294ED92627590B73F31E85D30EF477D54022
FILE: 02 - Don Wilkerson - Senorita Eula.flac
Size: 33935944 Hash: 72E03A9BB5344C850FD1D8673A9CA83F Accuracy: -m0
Conclusion: CDDA 100%
Signature: EC570189CCA616D98B3F2EA334D69AC817C6E8FB
FILE: 03 - Grant Green - Mambo Inn.flac
Size: 42082947 Hash: D24A3935E9AC0FC36CD21C13503DBD3F Accuracy: -m0
Conclusion: CDDA 100%
Signature: 8096932BD56204027E49A1DB5703F7879F0C6908
FILE: 04 - Hank Mobley - Recado Bossa Nova.flac
Size: 51414600 Hash: CFFA768204FE8BA4627F5756D5FD5E6A Accuracy: -m0
Conclusion: CDDA 100%
Signature: 14F312CF1EA7AF0CE2D8F251321D158B4319FAEB
FILE: 05 - Freddie Roach - Mo' Greens Please.flac
Size: 25253871 Hash: 8351F8578BFDE91B7B910CD3F2CC083D Accuracy: -m0
Conclusion: CDDA 100%
Signature: 09FDAB0EB41465DB5087B0B28FE990CD51F14397
FILE: 06 - Andrew Hill - Mira.flac
Size: 35467645 Hash: 08713C2A5AF5AA7FCBC09B50C4EF06CA Accuracy: -m0
Conclusion: CDDA 100%
Signature: D883762773EC172E4D65DDD8202BF268AB102D5F
FILE: 07 - 'Big' John Patton - Latona.flac
Size: 52666544 Hash: D306DFDA3BF78A8C693201A560D78D73 Accuracy: -m0
Conclusion: CDDA 100%
Signature: 638347FC40085FC55897503E27D93315A03056F6
FILE: 08 - Donald Byrd - Ghana.flac
Size: 52211259 Hash: 126F890BCCD3EEE15BF9915040FAACBA Accuracy: -m0
Conclusion: MPEG 79%
Signature: 98FCE709F7B26A389E75A0B028B142FF3D110989
FILE: 09 - Stanley Turrentine - Walk On By.flac
Size: 33247999 Hash: AEF130710261882CE56C115D7648F71D Accuracy: -m0
Conclusion: CDDA 100%
Signature: A4D0401D026EAD8B8EFD2DB3B0F92705C4D57E1D
FILE: 10 - Freddie Hubbard - One Mint Julep.flac
Size: 42249968 Hash: 6DD52E6708ABDC8DC5559D5280160576 Accuracy: -m0
Conclusion: ???
Signature: 2713B0DCBEE4F172ECF73EE39FB300A653707C56
CD Compilation Information:
This Compilation by (p) (c) 2000 Minos - EMI S.A. 02/2000 A Special Project by Minos - EMI S.A.
18:49
333
Нет комментариев. Ваш будет первым!