Вы используете незарегистрированную версию компонента "Вкладки"!

Поиск

(Jazz, Post-Bop) Gary Burton, Pat Metheny, Steve Swallow, Antonio Sanchez - Quartet Live - 2009, APE (image+.cue), lossless

(Jazz, Post-Bop) Gary Burton, Pat Metheny, Steve Swallow, Antonio Sanchez - Quartet Live - 2009, APE (image+.cue), lossless
Треклист:
Gary Burton, Pat Metheny, Steve Swallow, Antonio Sanchez - Quartet Live
Жанр: Jazz, Post-Bop
Год выпуска диска: 2009
Аудио кодек: APE
Тип рипа: image+.cue
Битрейт аудио: lossless
Продолжительность: 79:20
Трэклист:
01 Sea Journey
02 Olhos de Gato
03 Falling Grace
04 Coral
05 Walter L
06 B and G (Midwestern Night's Dream)
07 Missouri Uncompromised
08 Fleurette Africaine (Little African Flower)
09 Hullo, Bolinas
10 Syndrome
11 Question and Answer
Цитата:
Релиз нового концертного альбома квартета знаменитого виброфониста состоится 26 мая на лейбле Concord Jazz. В новом квартете Гари Бертона (Gary Burton) играют легендарные джазовые музыканты — гитарист Пет Метини (Pat Metheny), бас-гитарист Стив Своллоу (Steve Swallow) и один из ярчайших современных барабанщиков Антонио Санчес (Antonio Sanchez). Диск записан в известном клубе Yoshi’s Jazz Club, который находится в Окленде, штат Калифорния. Следует напомнить, что Гари Бертон был одним из первых джазовых музыкантов, начавших эксперименты по синтезу джаза и рок-музыки во второй половине 60-х годов. Альбом „Duster“, изданный в 1967-ом году и записанный первым „гитарным“ квартетом Гари принято считать одним из самых ранних образцов стиля фьюжн. Состав квартета неоднократно менялся, но просуществовал почти 10 лет. Пет Метини был гитаристом квартета Гари Бертона в последние годы его существования. Новый квартет Гари Бертона с Петом Метини – возвращение к формату, который принес известность обоим музыкантам.
 
EAC
Exact Audio Copy V0.99 prebeta 4 from 23. January 2008
Отчёт EAC об извлечении, выполненном 26. июня 2009, 22:29
Gary Burton, Pat Metheny, Steve Swallow, Antonio Sanchez / Quartet Live
Дисковод: ASUS DRW-20B1LT Adapter: 2 ID: 0
Режим чтения : Достоверность
Использование точного потока : Да
Отключение кэша аудио : Да
Использование указателей C2 : Нет
Коррекция смещения при чтении : 6
Способность читать области Lead-in и Lead-out : Нет
Заполнение пропущенных сэмплов тишиной : Да
Удаление блоков с тишиной в начале и конце : Нет
При вычислениях CRC использовались нулевые сэмплы : Да
Интерфейс : Встроенный Win32-интерфейс для Win NT/2000
Выходной формат : Внутренние WAV-операции
Формат сэмплов : 44.100 Гц; 16 бит; стерео
TOC извлечённого CD
Трек | Старт | Длительность | Начальный сектор | Конечный сектор
---------------------------------------------------------------------
1 | 0:00.00 | 8:59.17 | 0 | 40441
2 | 8:59.17 | 6:36.27 | 40442 | 70168
3 | 15:35.44 | 7:18.18 | 70169 | 103036
4 | 22:53.62 | 6:23.06 | 103037 | 131767
5 | 29:16.68 | 5:29.73 | 131768 | 156515
6 | 34:46.66 | 6:53.21 | 156516 | 187511
7 | 41:40.12 | 7:33.46 | 187512 | 221532
8 | 49:13.58 | 7:34.04 | 221533 | 255586
9 | 56:47.62 | 4:47.34 | 255587 | 277145
10 | 61:35.21 | 4:42.09 | 277146 | 298304
11 | 66:17.30 | 13:02.73 | 298305 | 357027
Характеристики диапазона извлечения и сообщения об ошибках
Выбранный диапазон
Имя файла D:\Lossless\Gary Burton, Pat Metheny, Steve Swallow, Antonio Sanchez\Gary Burton, Pat Metheny, Steve Swallow, Antonio Sanchez - Quartet Live.wav
Пиковый уровень 99.8 %
Качество диапазона 99.9 %
CRC копии 305CAC9A
Копирование... OK
Ошибок не произошло
Any questions - support@pro-jazz.com. Есть вопросы - support@pro-jazz.com
20:51
267
Нет комментариев. Ваш будет первым!