Поиск

(Jazz-Pop, Samba) The Sergio Mendes and Brasil '66 - Four Sider (Foursider) (on 2LP, 1972) {A&M Records CD 6012, USA} - 1988, APE (image+.cue) lossless

(Jazz-Pop, Samba) The Sergio Mendes and Brasil '66 - Four Sider (Foursider) (on 2LP, 1972) {A&M Records CD 6012, USA} - 1988, APE (image+.cue) lossless
Треклист:
The Sergio Mendes and Brasil '66 - Four Sider
Жанр: Jazz-Pop, Samba
Страна-производитель диска: USA
Год издания диска: 1972 (original "Four Sider" on 2LP) / 1988 (CD Reissue)
Издатель (лейбл): A&M Records
Номер по каталогу: CD 6012 (75021 6012 2)
Аудио кодек: APE (*.ape)
Тип рипа: image+.cue
Битрейт аудио: lossless
Продолжительность: 01:06:35
Источник (релизер): barin99
Наличие сканов в содержимом раздачи: да
Треклист:
01. Mais Que Nada
02. One Note Samba / Spanish Flea
03. Bim Bom
04. Look Around
05. (Sittin' On) The Dock of the Bay
06. Watch What Happens
07. With a Little Help from My Friends
08. The Look of Love
09. Norwegian Wood (This Bird Has Flown)
10. Wave
11. After Midnight
12. Chelsea Morning
13. The Fool on the Hill
14. For What It's Worth
15. Day Tripper
16. Crystal Illusions (Memorias de Marta Sare)
17. País Tropical
18. Ye-Me-Le
19. Laia Ladaia (Reza)
20. Promise of a Fisherman
21. After Sunrise
 
Лог создания рипа (EAC Log)
Exact Audio Copy V0.99 prebeta 4 from 23. January 2008
EAC extraction logfile from 22. June 2009, 18:30
Sergio Mendes & Brasil '66 / Foursider
Used drive : HL-DT-STRW/DVD GCC-4242N Adapter: 1 ID: 0
Read mode : Secure
Utilize accurate stream : Yes
Defeat audio cache : Yes
Make use of C2 pointers : No
Read offset correction : 102
Overread into Lead-In and Lead-Out : No
Fill up missing offset samples with silence : Yes
Delete leading and trailing silent blocks : No
Null samples used in CRC calculations : Yes
Used interface : Native Win32 interface for Win NT & 2000
Used output format : Internal WAV Routines
Sample format : 44.100 Hz; 16 Bit; Stereo
TOC of the extracted CD
Track | Start | Length | Start sector | End sector
---------------------------------------------------------
1 | 0:00.32 | 2:39.35 | 32 | 11991
2 | 2:39.67 | 1:47.10 | 11992 | 20026
3 | 4:27.02 | 1:54.13 | 20027 | 28589
4 | 6:21.15 | 3:01.20 | 28590 | 42184
5 | 9:22.35 | 3:11.57 | 42185 | 56566
6 | 12:34.17 | 2:46.33 | 56567 | 69049
7 | 15:20.50 | 2:34.55 | 69050 | 80654
8 | 17:55.30 | 2:44.30 | 80655 | 92984
9 | 20:39.60 | 3:56.20 | 92985 | 110704
10 | 24:36.05 | 2:17.47 | 110705 | 121026
11 | 26:53.52 | 3:54.65 | 121027 | 138641
12 | 30:48.42 | 3:01.10 | 138642 | 152226
13 | 33:49.52 | 3:13.00 | 152227 | 166701
14 | 37:02.52 | 3:42.50 | 166702 | 183401
15 | 40:45.27 | 3:06.70 | 183402 | 197421
16 | 43:52.22 | 7:49.08 | 197422 | 232604
17 | 51:41.30 | 2:47.05 | 232605 | 245134
18 | 54:28.35 | 2:27.70 | 245135 | 256229
19 | 56:56.30 | 3:13.50 | 256230 | 270754
20 | 60:10.05 | 2:58.32 | 270755 | 284136
21 | 63:08.37 | 3:27.63 | 284137 | 299724
Range status and errors
Selected range
Filename C:\_\EAC_Out\Out\Sergio Mendes & Brasil '66 - Foursider\Sergio Mendes & Brasil '66 - Foursider.wav
Peak level 100.0 %
Range quality 100.0 %
Copy CRC 74C55132
Copy OK
No errors occurred
AccurateRip summary
Track 1 accurately ripped (confidence 3) [B80D78D8]
Track 2 accurately ripped (confidence 3) [141EDB4F]
Track 3 accurately ripped (confidence 3) [8676417D]
Track 4 accurately ripped (confidence 3) [83C299DB]
Track 5 accurately ripped (confidence 3) [47CD96E0]
Track 6 accurately ripped (confidence 3) [1865A2C0]
Track 7 accurately ripped (confidence 3) [D6AFBD87]
Track 8 accurately ripped (confidence 3) [FE3C6067]
Track 9 accurately ripped (confidence 3) [65673D77]
Track 10 accurately ripped (confidence 3) [6504A6C7]
Track 11 accurately ripped (confidence 3) [8A31A291]
Track 12 accurately ripped (confidence 3) [03D1E83B]
Track 13 accurately ripped (confidence 3) [38703A94]
Track 14 accurately ripped (confidence 3) [6603C524]
Track 15 accurately ripped (confidence 3) [F3793E92]
Track 16 accurately ripped (confidence 3) [0A030152]
Track 17 accurately ripped (confidence 3) [A8A53106]
Track 18 accurately ripped (confidence 3) [560B8330]
Track 19 accurately ripped (confidence 3) [27801F66]
Track 20 accurately ripped (confidence 3) [42B73286]
Track 21 accurately ripped (confidence 2) [9F859468]
All tracks accurately ripped
End of status report
 
Содержание индексной карты (.CUE)
REM GENRE "Easy - Latin Pop"
REM DATE 1988
REM DISCID 100F9C15
REM COMMENT "ExactAudioCopy v0.99pb4"
PERFORMER "Sergio Mendes & Brasil '66"
TITLE "Foursider"
FILE "Sergio Mendes & Brasil '66 - Foursider.ape" WAVE
TRACK 01 AUDIO
TITLE "Mais Que Nada"
PERFORMER "Sergio Mendes & Brasil '66"
INDEX 00 00:00:00
INDEX 01 00:00:32
TRACK 02 AUDIO
TITLE "One Note Samba-Spanish Flea"
PERFORMER "Sergio Mendes & Brasil '66"
INDEX 00 02:38:02
INDEX 01 02:39:67
TRACK 03 AUDIO
TITLE "Bim Bom"
PERFORMER "Sergio Mendes & Brasil '66"
INDEX 00 04:25:22
INDEX 01 04:27:02
TRACK 04 AUDIO
TITLE "Look Around"
PERFORMER "Sergio Mendes & Brasil '66"
INDEX 00 06:19:20
INDEX 01 06:21:15
TRACK 05 AUDIO
TITLE "(Sittin' on) the Dock of the Bay"
PERFORMER "Sergio Mendes & Brasil '66"
INDEX 00 09:20:00
INDEX 01 09:22:35
TRACK 06 AUDIO
TITLE "Watch What Happens"
PERFORMER "Sergio Mendes & Brasil '66"
INDEX 00 12:32:42
INDEX 01 12:34:17
TRACK 07 AUDIO
TITLE "With a Little Help From My Friends"
PERFORMER "Sergio Mendes & Brasil '66"
INDEX 00 15:18:67
INDEX 01 15:20:50
TRACK 08 AUDIO
TITLE "Look of Love"
PERFORMER "Sergio Mendes & Brasil '66"
INDEX 00 17:54:42
INDEX 01 17:55:30
TRACK 09 AUDIO
TITLE "Norwegian Wood"
PERFORMER "Sergio Mendes & Brasil '66"
INDEX 00 20:38:02
INDEX 01 20:39:60
TRACK 10 AUDIO
TITLE "Wave"
PERFORMER "Sergio Mendes & Brasil '66"
INDEX 00 24:32:25
INDEX 01 24:36:05
TRACK 11 AUDIO
TITLE "After Midnight"
PERFORMER "Sergio Mendes & Brasil '66"
INDEX 00 26:52:15
INDEX 01 26:53:52
TRACK 12 AUDIO
TITLE "Chelsea Morning"
PERFORMER "Sergio Mendes & Brasil '66"
INDEX 00 30:47:52
INDEX 01 30:48:42
TRACK 13 AUDIO
TITLE "Fool on the Hill"
PERFORMER "Sergio Mendes & Brasil '66"
INDEX 00 33:48:25
INDEX 01 33:49:52
TRACK 14 AUDIO
TITLE "For What it's Worth"
PERFORMER "Sergio Mendes & Brasil '66"
INDEX 00 37:00:05
INDEX 01 37:02:52
TRACK 15 AUDIO
TITLE "Day Tripper"
PERFORMER "Sergio Mendes & Brasil '66"
INDEX 00 40:44:00
INDEX 01 40:45:27
TRACK 16 AUDIO
TITLE "Crystal Illuions (Memorias de Marta Sare)"
PERFORMER "Sergio Mendes & Brasil '66"
INDEX 00 43:50:02
INDEX 01 43:52:22
TRACK 17 AUDIO
TITLE "Pais Tropical"
PERFORMER "Sergio Mendes & Brasil '66"
INDEX 00 51:40:27
INDEX 01 51:41:30
TRACK 18 AUDIO
TITLE "Ye-Me-Le"
PERFORMER "Sergio Mendes & Brasil '66"
INDEX 00 54:26:05
INDEX 01 54:28:35
TRACK 19 AUDIO
TITLE "Lai Ladaia (Reza)"
PERFORMER "Sergio Mendes & Brasil '66"
INDEX 00 56:53:57
INDEX 01 56:56:30
TRACK 20 AUDIO
TITLE "Promise of a Fisherman"
PERFORMER "Sergio Mendes & Brasil '66"
INDEX 00 60:07:40
INDEX 01 60:10:05
TRACK 21 AUDIO
TITLE "After Sunrise"
PERFORMER "Sergio Mendes & Brasil '66"
INDEX 00 63:06:15
INDEX 01 63:08:37
 
AMG
"Covering the extent of Brasil '66's output from 1966-1972, Four Sider is the best available retrospective for those new to Mendes' successful Brazilian pop outfit (the 45-song Very Best of Sergio Mendes & Brasil '66 offers a more comprehensive, yet potentially daunting overview). Typical of the band's original albums, Four Sider includes a mix of Brazilian material and '60s pop hits. Also on display is Mendes' winning blend of bossa nova rhythms and lounge-a-go-go elements (churning organ riffs and rock basslines), complimented by a variety of percussion, airy vocal harmonies, and his own jazz-informed keyboard contributions and horn charts. Highlights include renditions of the Beatles' "Nowhere Man" and Joni Mitchell's "Chelsea Morning," in addition to several Brazilian hits, like Jorge Ben's "Mais Que Nada" and Antonio Carlos Jobim's "Wave." Other Brazilian luminaries are represented as well, including Edu Lobo, Dori Caymmi, and Oscar Neves, not to mention Mendes himself ("Look Around"). Wrapping up the set are a few Brasil '77 cuts, which spotlight the post-bossa nova sounds of tropicalismo (Ben's "Pais Tropical" and Mendes' "Promise of a Fisherman"). This is a fine collection; one that shows Mendes wasn't simply another space-age bachelor, but an innovative musician and arranger as well."
... Великолепный альбом! ...
22:23
404
Нет комментариев. Ваш будет первым!