Поиск

(Jazz-Pop / Bop) Stanley Jordan - The Best Of Guitar Tapping - 2004, APE (image+.cue), lossless

(Jazz-Pop / Bop) Stanley Jordan - The Best Of Guitar Tapping - 2004, APE (image+.cue), lossless
Треклист:
Stanley Jordan - The Best Of Guitar Tapping
Жанр: Jazz-Pop / Bop
Год выпуска диска: 2004
Производитель диска: Россия
Аудио кодек: APE
Тип рипа: image+.cue
Битрейт аудио: lossless
Продолжительность: 55:59
Творчество Стэнли Джордана одинаково уважают и ценители джаза, и поклонники рок-гитары. Его игра на этом инструменте принципиально отличается от общепринятой. Слушая Джордана порой кажется, что играют два гитариста. Благодаря своей особой технике он способен исполнять одновременно и партию аккомпанемента, и быстрые сольные пассажи. Этот особый метод игры на гитаре, когда обе руки извлекают звуки, находясь непосредственно на гитарном грифе, называется «тэппинг». Виртуоз Стэнли Джордан отточил эту технику до невероятного уровня, и сегодня он является непревзойдённым Мастером в данной области гитарного искусства. Сборник Стэнли Джордана «The Best of Guitar Tapping» составлен из наиболее красивых лирических баллад и блюзов этого блистательного виртуоза.
Трэклист:
01. Georgia On My Mind (6:06)
02. Eleanor Rigby (7:02)
03. Freddie Freeloader (6:07)
04. Round Midnight (5:08)
05. Angel (4:14)
06. Impressions (7:15)
07. Child Is Born (3:34)
08. My Favorite Things (3:55)
09. Stairway To Heaven (6:17)
10. Over The Rainbow (?)
Доп. информация:
 
Дополнительные обложки


 
Отчёт EAC
Exact Audio Copy V0.99 prebeta 4 from 23. January 2008
Отчёт EAC об извлечении, выполненном 18. января 2009, 15:19
Stanley Jordan / The Best Of Guitar Tapping
Дисковод: _NEC DVD_RW ND-3550A Adapter: 0 ID: 0
Режим чтения : Достоверность
Использование точного потока : Да
Отключение кэша аудио : Да
Использование указателей C2 : Нет
Коррекция смещения при чтении : 48
Способность читать области Lead-in и Lead-out : Нет
Заполнение пропущенных сэмплов тишиной : Да
Удаление блоков с тишиной в начале и конце : Нет
При вычислениях CRC использовались нулевые сэмплы : Да
Интерфейс : Установленный внешний ASPI-интерфейс
Выходной формат : Внутренние WAV-операции
Формат сэмплов : 44.100 Гц; 16 бит; стерео
TOC извлечённого CD
Трек | Старт | Длительность | Начальный сектор | Конечный сектор
---------------------------------------------------------------------
1 | 0:00.00 | 6:06.32 | 0 | 27481
2 | 6:06.32 | 7:01.65 | 27482 | 59121
3 | 13:08.22 | 6:06.66 | 59122 | 86637
4 | 19:15.13 | 5:07.61 | 86638 | 109723
5 | 24:22.74 | 4:13.50 | 109724 | 128748
6 | 28:36.49 | 7:14.45 | 128749 | 161343
7 | 35:51.19 | 3:33.48 | 161344 | 177366
8 | 39:24.67 | 3:54.70 | 177367 | 194986
9 | 43:19.62 | 6:17.30 | 194987 | 223291
10 | 49:37.17 | 6:21.61 | 223292 | 251927
Характеристики диапазона извлечения и сообщения об ошибках
Выбранный диапазон
Имя файла ...\Stanley Jordan - The Best Of Guitar Tapping\Stanley Jordan - The Best Of Guitar Tapping.wav
Пиковый уровень 97.2 %
Качество диапазона 100.0 %
CRC копии E5497415
Копирование... OK
Ошибок не произошло
Конец отчёта
Приватный:
Нет (DHT включён)
Размер:
232.48 Мб (243,771,639 байт) » файлов: 7
Участники:
0 раздают, 0 качают (0 участников всего)
Внешние участники:
2 раздают, 1 качают (3 участников всего) [ Обновить ]
For power users only: no seeders - write to support@pro-jazz.com. Для power user: нет сидеров - пишите на support@pro-jazz.com.
16:47
132
Нет комментариев. Ваш будет первым!