Поиск

(Jazz) Oregon - Friends - 1977, FLAC (image + .cue), lossless

(Jazz) Oregon - Friends - 1977, FLAC (image + .cue), lossless
Oregon - Friends
Страна: USA
Жанр: Jazz
Год выпуска: 1977
Формат: FLAC (image + .cue)
Битрейт аудио: lossless
Продолжительность: 41:15
Трэклист:
1 Interstate
2 Gospel Song
3 Grazing Dreams
4 Slumber Song
5 Time Remembered
6 First Thing in the Morning
7 Love Over Time
8 Timeless
Ralph Towner: classical guitar, 12 string guitar, piano
Paul McCandless: oboe, English horn, bass clarinet, flute
Glen Moore: bass
Collin Walcott: tabla, congas
David Earl Johnson: congas
Larry Karush: piano
 
EAC Report
Exact Audio Copy V0.99 prebeta 3 from 28. July 2007
EAC extraction logfile from 2. February 2008, 18:37
Oregon / Friends
Used drive : MATSHITADVD-RAM UJ-840S Adapter: 1 ID: 0
Read mode : Secure
Utilize accurate stream : Yes
Defeat audio cache : No
Make use of C2 pointers : Yes
Read offset correction : 102
Overread into Lead-In and Lead-Out : No
Fill up missing offset samples with silence : Yes
Delete leading and trailing silent blocks : No
Null samples used in CRC calculations : No
Used interface : Native Win32 interface for Win NT & 2000
Used output format : User Defined Encoder
Selected bitrate : 1024 kBit/s
Quality : High
Add ID3 tag : No
Command line compressor : C:\Program Files\Exact Audio Copy\FLAC\FLAC.EXE
Additional command line options : -6 -V -T "ARTIST=%a" -T "TITLE=%t" -T "ALBUM=%g" -T "DATE=%y" -T "TRACKNUMBER=%n" -T "GENRE=%m" -T "COMMENT=%e" %s -o %d
TOC of the extracted CD
Track | Start | Length | Start sector | End sector
---------------------------------------------------------
1 | 0:00.00 | 8:47.00 | 0 | 39524
2 | 8:47.00 | 2:31.00 | 39525 | 50849
3 | 11:18.00 | 3:37.00 | 50850 | 67124
4 | 14:55.00 | 5:58.00 | 67125 | 93974
5 | 20:53.00 | 4:47.00 | 93975 | 115499
6 | 25:40.00 | 3:24.00 | 115500 | 130799
7 | 29:04.00 | 3:50.00 | 130800 | 148049
8 | 32:54.00 | 8:21.17 | 148050 | 185641
Range status and errors
Selected range
Filename C:\Documents and Settings\Igor\My Documents\Upload\Oregon - Friends.wav
Peak level 100.0 %
Range quality 100.0 %
Copy CRC 34D0C816
Copy OK
No errors occurred
AccurateRip summary
Track 1 cannot be verified as accurate (confidence 1) [B7BEC9BB], AccurateRip returned [FCB9124A]
Track 2 cannot be verified as accurate (confidence 1) [8334D81A], AccurateRip returned [80A32E84]
Track 3 cannot be verified as accurate (confidence 1) [7458A30F], AccurateRip returned [64C32DAC]
Track 4 cannot be verified as accurate (confidence 1) [0C940A41], AccurateRip returned [83FF75E2]
Track 5 cannot be verified as accurate (confidence 1) [FED5F94F], AccurateRip returned [993E9D41]
Track 6 cannot be verified as accurate (confidence 1) [3D3B618E], AccurateRip returned [01A0163D]
Track 7 cannot be verified as accurate (confidence 1) [57A0BF4C], AccurateRip returned [C8F0277F]
Track 8 cannot be verified as accurate (confidence 1) [B2E4517A], AccurateRip returned [A4A52A5F]
No tracks could be verified as accurate
You may have a different pressing from the one(s) in the database
End of status report
ТОРРЕНТ ПЕРЕЗАЛИТ 24.05.2017, 14:23 МСК по техническим причинам. Содержимое не менялось.
Просьба ко всем ранее скачавшим, присоединяться к раздаче.
01:16
363
Нет комментариев. Ваш будет первым!