Поиск

(Jazz) Nguyen Le - Zanzibar - 1992, FLAC (image+.cue), lossless

(Jazz) Nguyen Le - Zanzibar - 1992, FLAC (image+.cue), lossless
Треклист:
Nguyên Lê - Zanzibar
Жанр: Jazz
Год выпуска диска: 1992
Производитель диска: France
Аудио кодек: FLAC
Тип рипа: image+.cue
Битрейт аудио: lossless
Продолжительность: 58:55
Nguyên Lê el. & ac. guitars, gt synth, synth programming & sequencing
Art Lande piano, thumb piano
Paul McCandless soprano saxophone, oboe, english horn, bass clarinet
Dean Johnson acoustic bass
Joel Allouche drums, percussion
Zanzibar
Sarugaku
Urbi
Isoar
Nomaco
Singe Roi
Omero
Lupi Pilu
Trace
Singe Pèlerin
Lucie & Umbrae

 
EAC Report
Exact Audio Copy V0.99 prebeta 4 from 23. January 2008
EAC extraction logfile from 14. July 2008, 23:27
Nguyên Lê / Zanzibar
Used drive : TSSTcorpCD/DVDW SH-S182M Adapter: 2 ID: 1
Read mode : Secure
Utilize accurate stream : Yes
Defeat audio cache : Yes
Make use of C2 pointers : No
Read offset correction : 6
Overread into Lead-In and Lead-Out : No
Fill up missing offset samples with silence : Yes
Delete leading and trailing silent blocks : No
Null samples used in CRC calculations : No
Used interface : Installed external ASPI interface
Used output format : User Defined Encoder
Selected bitrate : 768 kBit/s
Quality : High
Add ID3 tag : No
Command line compressor : C:\Program Files\Exact Audio Copy\FLAC\FLAC.EXE
Additional command line options : -6 -V -T "ARTIST=%a" -T "TITLE=%t" -T "ALBUM=%g" -T "DATE=%y" -T "TRACKNUMBER=%n" -T "GENRE=%m" -T "COMMENT=%e" %s -o %d
TOC of the extracted CD
Track | Start | Length | Start sector | End sector
---------------------------------------------------------
1 | 0:00.32 | 5:49.20 | 32 | 26226
2 | 5:49.52 | 1:51.08 | 26227 | 34559
3 | 7:40.60 | 6:44.02 | 34560 | 64861
4 | 14:24.62 | 7:49.20 | 64862 | 100056
5 | 22:14.07 | 6:31.48 | 100057 | 129429
6 | 28:45.55 | 1:59.32 | 129430 | 138386
7 | 30:45.12 | 5:37.20 | 138387 | 163681
8 | 36:22.32 | 7:41.70 | 163682 | 198326
9 | 44:04.27 | 7:30.53 | 198327 | 232129
10 | 51:35.05 | 1:39.00 | 232130 | 239554
11 | 53:14.05 | 5:40.62 | 239555 | 265116
Range status and errors
Selected range
Filename F:\z\Nguyên Lê - Zanzibar.wav
Peak level 100.0 %
Range quality 100.0 %
Copy CRC C83DC1F7
Copy OK
No errors occurred
AccurateRip summary
Track 1 not present in database
Track 2 not present in database
Track 3 not present in database
Track 4 not present in database
Track 5 not present in database
Track 6 not present in database
Track 7 not present in database
Track 8 not present in database
Track 9 not present in database
Track 10 not present in database
Track 11 not present in database
None of the tracks are present in the AccurateRip database
End of status report



02:57
509
Нет комментариев. Ваш будет первым!