Вы используете незарегистрированную версию компонента "Вкладки"!

Поиск

(Jazz,Modern) Pat Metheny - Secret Story - 1992, FLAC (tracks+.cue), lossless

(Jazz,Modern) Pat Metheny - Secret Story - 1992, FLAC (tracks+.cue), lossless
Треклист:
Pat Metheny - Secret Story
Жанр: Jazz,Modern
Год выпуска диска: 1992
Производитель диска: USA
Аудио кодек: FLAC
Тип рипа: tracks+.cue
Битрейт аудио: lossless
Продолжительность: 76:26
Трэклист:
01 - Above the Treetops - 2:44
02 - Facing West - 5:59
03 - Cathedral in a Suitcase - 4:52
04 - Finding and Believing - 9:57
05 - The Longest Summer - 6:32
06 - Sunlight - 3:53
07 - Rain River - 7:09
08 - Always and Forever - 5:25
09 - See the World - 4:48
10 - As a Flower Blossoms (I Am Running to You) - 1:53
11 - Antonia - 6:11
12 - The Truth Will Always Be - 9:10
13 - Tell Her You Saw Me - 5:07
14 - Not to Be Forgotton (Our Final Hour) - 2:20
Доп. информация:
Featuring:
Pat Metheny - acoustic and electric guitar,piano,keyboards,electric bass,etc,
with the London Orchestra Conducted by Jeremy Lubbock and other musicians.
Все мои альбомы-оригиналы!
 
скрытый текст
EAC extraction logfile from 4. November 2009, 15:34 for CD
Pat Metheny / Secret Story
Used drive : LITE-ON CD-RW SOHR-5238S Adapter: 1 ID: 0
Read mode : Secure with NO C2, accurate stream, disable cache
Read offset correction : 6
Overread into Lead-In and Lead-Out : No
Used output format : C:\Program Files\MediaCoder\codecs\flac.exe (User Defined Encoder)
192 kBit/s
Additional command line options : ?8 ?V ?T "ARTIST=%a" ?T "TITLE=%t" ?T "ALBUM=%g" ?T "DATE=%y" ?T "TRACKNUMBER=%n" ?T "GENRE=%m" ?T "COMMENT=EAC FLAC ?8" %s
Other options :
Fill up missing offset samples with silence : Yes
Delete leading and trailing silent blocks : No
Installed external ASPI interface
Track 1
Filename F:\Torrents CD\Pat Metheny-Secret Story[1992]\01 - Above the Treetops .wav
Pre-gap length 0:00:02.00
Peak level 88.6 %
Track quality 100.0 %
Test CRC 2DFE23F9
Copy CRC 2DFE23F9
Copy OK
Track 2
Filename F:\Torrents CD\Pat Metheny-Secret Story[1992]\02 - Facing West .wav
Peak level 99.8 %
Track quality 99.9 %
Test CRC D0DFC627
Copy CRC D0DFC627
Copy OK
Track 3
Filename F:\Torrents CD\Pat Metheny-Secret Story[1992]\03 - Cathedral in a Suitcase .wav
Peak level 99.8 %
Track quality 100.0 %
Test CRC C8FE08F1
Copy CRC C8FE08F1
Copy OK
Track 4
Filename F:\Torrents CD\Pat Metheny-Secret Story[1992]\04 - Finding and Believing .wav
Peak level 99.8 %
Track quality 100.0 %
Test CRC 3BEB50E0
Copy CRC 3BEB50E0
Copy OK
Track 5
Filename F:\Torrents CD\Pat Metheny-Secret Story[1992]\05 - The Longest Summer .wav
Pre-gap length 0:00:01.84
Peak level 97.6 %
Track quality 100.0 %
Test CRC 76C067BC
Copy CRC 76C067BC
Copy OK
Track 6
Filename F:\Torrents CD\Pat Metheny-Secret Story[1992]\06 - Sunlight .wav
Pre-gap length 0:00:02.36
Peak level 99.8 %
Track quality 100.0 %
Test CRC F939E131
Copy CRC F939E131
Copy OK
Track 7
Filename F:\Torrents CD\Pat Metheny-Secret Story[1992]\07 - Rain River .wav
Peak level 99.8 %
Track quality 100.0 %
Test CRC 60B4DA06
Copy CRC 60B4DA06
Copy OK
Track 8
Filename F:\Torrents CD\Pat Metheny-Secret Story[1992]\08 - Always and Forever .wav
Peak level 83.2 %
Track quality 99.9 %
Test CRC 68482ED8
Copy CRC 68482ED8
Copy OK
Track 9
Filename F:\Torrents CD\Pat Metheny-Secret Story[1992]\09 - See the World .wav
Pre-gap length 0:00:01.66
Peak level 96.3 %
Track quality 100.0 %
Test CRC 65DCD725
Copy CRC 65DCD725
Copy OK
Track 10
Filename F:\Torrents CD\Pat Metheny-Secret Story[1992]\10 - As a Flower Blossoms (I Am Running to You) .wav
Peak level 62.7 %
Track quality 100.0 %
Test CRC F778DE1F
Copy CRC F778DE1F
Copy OK
Track 11
Filename F:\Torrents CD\Pat Metheny-Secret Story[1992]\11 - Antonia .wav
Peak level 99.8 %
Track quality 100.0 %
Test CRC CE41FD44
Copy CRC CE41FD44
Copy OK
Track 12
Filename F:\Torrents CD\Pat Metheny-Secret Story[1992]\12 - The Truth Will Always Be .wav
Peak level 99.8 %
Track quality 100.0 %
Test CRC AA5B82A4
Copy CRC AA5B82A4
Copy OK
Track 13
Filename F:\Torrents CD\Pat Metheny-Secret Story[1992]\13 - Tell Her You Saw Me .wav
Pre-gap length 0:00:05.80
Peak level 93.9 %
Track quality 100.0 %
Test CRC D2DD31FB
Copy CRC D2DD31FB
Copy OK
Track 14
Filename F:\Torrents CD\Pat Metheny-Secret Story[1992]\14 - Not to Be Forgotton (Our Final Hour) .wav
Pre-gap length 0:00:05.13
Peak level 92.1 %
Track quality 100.0 %
Test CRC 3C1BCF0D
Copy CRC 3C1BCF0D
Copy OK
No errors occured
End of status report
По всем вопросам пишите личное сообщение пользователю M0p94ok.
16:25
1130
Нет комментариев. Ваш будет первым!