Вы используете незарегистрированную версию компонента "Вкладки"!

Поиск

(Jazz, Modern Creative, Soundtrack) John Lurie - Stranger Than Paradise & The Resurrection of Albert Ayler - 1985, APE (image+.cue), lossless

Треклист:
John Lurie - Stranger Than Paradise & The Resurrection of Albert Ayler
Жанр: Jazz, Modern Creative, Soundtrack
Год выпуска диска: 1985
Производитель диска: USA (Label: Strange & Beautiful Music)
Аудио кодек: APE
Тип рипа: image+.cue
Битрейт аудио: lossless
Продолжительность: 35:33
Источник: nnm (спасибо автору barin99)
Треклист:
1. Bella by Barlight
2. Car Cleveland
3. Sad Trees
4. The Lamposts Are Mine
5. Car Florida
6. Eva & Willie's Room / Beer for Boy's / Eva Packing
7. The Good and Happy Army
8. A Woman Can Take You to Another Universe; Sometimes She Just Leaves You There
9. Sixties Avant-Garde / Sex With Monster / You Owe Me Money / Resurrection

Доп. информация:
Personnel:
John Lurie - sax (alto), sax (soprano)
Curtis Fowlkes - trombone
Arto Lindsay - guitar
Mary Rowell - violin
Kay Stern - violin
Jill Jaffe - violin, viola
Eugene J. Moye - cello
Tony Garnier - bass
Dougie Bowne - drums
E.J. Rodriguez - percussion
Toni Nogueira - percussion
Recorded in 1984 at St. Ignatius Episcopalian Church & at 39th Street Music, NYC.
 
Отчет EAC
Exact Audio Copy V0.99 prebeta 4 from 23. January 2008
EAC extraction logfile from 26. March 2010, 21:30
John Lurie / Stranger Than Paradiese & The Resurrection of Albert Ayler
Used drive : HL-DT-STRW/DVD GCC-4242N Adapter: 1 ID: 0
Read mode : Secure
Utilize accurate stream : Yes
Defeat audio cache : Yes
Make use of C2 pointers : No
Read offset correction : 102
Overread into Lead-In and Lead-Out : No
Fill up missing offset samples with silence : Yes
Delete leading and trailing silent blocks : No
Null samples used in CRC calculations : Yes
Used interface : Native Win32 interface for Win NT & 2000
Used output format : Internal WAV Routines
Sample format : 44.100 Hz; 16 Bit; Stereo
TOC of the extracted CD
Track | Start | Length | Start sector | End sector
---------------------------------------------------------
1 | 0:00.33 | 3:22.30 | 33 | 15212
2 | 3:22.63 | 3:11.25 | 15213 | 29562
3 | 6:34.13 | 0:53.72 | 29563 | 33609
4 | 7:28.10 | 1:51.08 | 33610 | 41942
5 | 9:19.18 | 3:04.15 | 41943 | 55757
6 | 12:23.33 | 2:03.70 | 55758 | 65052
7 | 14:27.28 | 3:19.45 | 65053 | 80022
8 | 17:46.73 | 1:24.35 | 80023 | 86357
9 | 19:11.33 | 16:21.47 | 86358 | 159979
Range status and errors
Selected range
Filename C:\_\EAC_Out\Out\John Lurie - Stranger Than Paradiese & The Resurrection of Albert Ayler\John Lurie - Stranger Than Paradiese & The Resurrection of Albert Ayler.wav
Peak level 82.5 %
Range quality 100.0 %
Copy CRC 5F768243
Copy OK
No errors occurred
AccurateRip summary
Track 1 accurately ripped (confidence 2) [070BFE64]
Track 2 accurately ripped (confidence 2) [A1342957]
Track 3 accurately ripped (confidence 2) [8E237AB8]
Track 4 accurately ripped (confidence 2) [83899B32]
Track 5 accurately ripped (confidence 2) [54AE6373]
Track 6 accurately ripped (confidence 2) [449FAFEE]
Track 7 accurately ripped (confidence 2) [CDD34713]
Track 8 accurately ripped (confidence 2) [61625C59]
Track 9 accurately ripped (confidence 2) [B93AE1FB]
All tracks accurately ripped
End of status report
Саундтрек андеграундного композитора, музыканта, актера, художника Джона Лури (можно еще почитать здесь) к культовому фильму Джима Джармуша (фильмография на трекере)John Lurie на трекере
Any questions - support@pro-jazz.com.
Есть вопросы - support@pro-jazz.com
01:37
249
Нет комментариев. Ваш будет первым!