Вы используете незарегистрированную версию компонента "Вкладки"!

Поиск

(Jazz, Modern Creative, Post-Bop) Jerry Granelli - A Song I Thought I Heard Buddy Sing - 1993, FLAC (image+.cue) losseless

(Jazz, Modern Creative, Post-Bop) Jerry Granelli - A Song I Thought I Heard Buddy Sing - 1993, FLAC (image+.cue) losseless
Треклист:
Jerry Granelli - A Song I Thought I Heard Buddy Sing
Жанр: Jazz, Modern Creative, Post-Bop
Год выпуска диска: 1993
Производитель диска: Россия
Аудио кодек: FLAC
Тип рипа: image+.cue
Продолжительность: 57:50
Источник: Личная коллекция
Трэклист:
1. Wanderlust (Ellington, Hodges) 7:40
2. Smoky Row (Horvitz) :39
3. The Oyster Dance (Granelli) 5:02
4. Billie's Bounce (Parker) 6:20
5. Coming Through Slaughter (Granelli) 9:26
6. In That Number (Horvitz) 6:02
7. Prelude to Silence: Shell Beach/Lincoln Park (Priester) 5:06
8. I Put a Spell on You (Hawkins) 7:24
9. Blues Connotation (Coleman) 6:03
10. Blues Connotation Reprise (Coleman) 4:08
Состав:
Jerry Granelli Arranger, Bass (Electric), Drums
Robben Ford Guitar, Arranger
Bill Frisell Banjo, Guitar
Kenny Garrett Sax (Alto)
Denney Goodhew Sax (Soprano)
Anthony Cox Bass
Wayne Horvitz Arranger
Julian Priester Trombone
 
EAC log
Exact Audio Copy V0.99 prebeta 5 from 4. May 2009
EAC extraction logfile from 29. August 2009, 6:17
Jerry Granelli / A Song I Thought I Heard Buddy Sing
Used drive : Optiarc DVD RW AD-7543A Adapter: 0 ID: 0
Read mode : Secure
Utilize accurate stream : Yes
Defeat audio cache : Yes
Make use of C2 pointers : No
Read offset correction : 48
Overread into Lead-In and Lead-Out : No
Fill up missing offset samples with silence : Yes
Delete leading and trailing silent blocks : No
Null samples used in CRC calculations : Yes
Used interface : Installed external ASPI interface
Used output format : User Defined Encoder
Selected bitrate : 768 kBit/s
Quality : High
Add ID3 tag : No
Command line compressor : C:\usr\Exact Audio Copy\FLAC\FLAC.EXE
Additional command line options : -8 -V %s
TOC of the extracted CD
Track | Start | Length | Start sector | End sector
---------------------------------------------------------
1 | 0:00.00 | 7:40.51 | 0 | 34550
2 | 7:40.51 | 0:39.13 | 34551 | 37488
3 | 8:19.64 | 5:02.27 | 37489 | 60165
4 | 13:22.16 | 6:20.27 | 60166 | 88692
5 | 19:42.43 | 9:26.12 | 88693 | 131154
6 | 29:08.55 | 6:02.57 | 131155 | 158361
7 | 35:11.37 | 5:06.00 | 158362 | 181311
8 | 40:17.37 | 7:23.17 | 181312 | 214553
9 | 47:40.54 | 6:02.41 | 214554 | 241744
10 | 53:43.20 | 4:07.33 | 241745 | 260302
Range status and errors
Selected range
Filename C:\wav\CDImage.wav
Peak level 100.0 %
Range quality 100.0 %
Copy CRC 533C43E9
Copy OK
No errors occurred
End of status report
 
auCDtect
auCDtect: CD records authenticity detector, version 0.8.2
Copyright (c) 2004 Oleg Berngardt. All rights reserved.
Copyright (c) 2004 Alexander Djourik. All rights reserved.
------------------------------------------------------------
Processing file: [CDImage.wav]
Detected average hi-boundary frequency: 2.018837e+04 Hz
Detected average lo-boundary frequency: 1.321851e+04 Hz
Detected average hi-cut frequency: 2.125092e+04 Hz
Detected average lo-cut frequency: 9.486647e+03 Hz
Maximum probablis boundary frequency: 2.189100e+04 Hz
Coefficient of nonlinearity of a phase: 2.203126e-02
First order smothness: 3.828983e-01
Second order smothness: 6.003269e-01
------------------------------------------------------------
This track looks like CDDA with probability 100%
------------------------------------------------------------
Final Conclusion:
------------------------------------------------------------
These tracks looks like CDDA with probability 100%
 
Спектр
Any questions -> support@pro-jazz.com. По всем вопросам пишите -> support@pro-jazz.com
14:04
165
Нет комментариев. Ваш будет первым!