Поиск

(jazz, modern creative) Hamiet Bluiett - You Don't Need to Know...If You Have to Ask 1991, FLAC (tracks+.cue), lossless

(jazz, modern creative) Hamiet Bluiett - You Don't Need to Know...If You Have to Ask 1991, FLAC (tracks+.cue), lossless
Треклист:


Hamiet Bluiett
You Don't Need to Know...If You Have to Ask
Жанр: jazz, modern creative
Год выпуска: 1991
Формат: FLAC (tracks+.cue)
Битрейт аудио: lossless
Продолжительность
Источник: ed2k

tracks

1. Black Danube (James Brown in 3/4 Times)
2. If Only We Knew & T.S. Monk, Sir
3. Wide Open
4. El Owora Befame-Ko (So, I'll Come Back) - Hamiet Bluiett, Ansah, Thomas Ebow
5. If You Have to Ask, You Don't Need to Know
6. The King and the Pallenquin - Hamiet Bluiett, Asnate, Okyerema
7. Theme for L. Young: Goodbye Pork Pie Hat - Hamiet Bluiett, Mingus, Charles
8. Children at Play
9. The Gift: One Shot from the Hip
10. Circle of Prayer

 
 
logfile
EAC extraction logfile from 22. September 2007, 14:37 for CD
Hamiet Bluiett / ...you don't need to know...if you have to ask..
Used drive : PLEXTOR DVD-ROM PX-116A2 Adapter: 3 ID: 0
Read mode : Secure with NO C2, accurate stream, disable cache
Read offset correction : 102
Overread into Lead-In and Lead-Out : No
Used output format : Internal WAV Routines
44.100 Hz; 16 Bit; Stereo
Other options :
Fill up missing offset samples with silence : Yes
Delete leading and trailing silent blocks : No
Installed external ASPI interface
Track 1
Filename H:\upload\Hamiet Bluiett\...you don't need to know...if you have to ask\01 - Black danube (James Brown in 3-4 time).wav
Pre-gap length 0:00:02.05
Peak level 70.3 %
Track quality 100.0 %
Test CRC 505D28E1
Copy CRC 505D28E1
Copy OK
Track 2
Filename H:\upload\Hamiet Bluiett\...you don't need to know...if you have to ask\02 - If only we knew & T.S. Monk, Sir.wav
Pre-gap length 0:00:02.00
Peak level 94.4 %
Track quality 100.0 %
Test CRC C56028E4
Copy CRC C56028E4
Copy OK
Track 3
Filename H:\upload\Hamiet Bluiett\...you don't need to know...if you have to ask\03 - Wide open.wav
Pre-gap length 0:00:03.03
Peak level 95.7 %
Track quality 100.0 %
Test CRC 82578D3E
Copy CRC 82578D3E
Copy OK
Track 4
Filename H:\upload\Hamiet Bluiett\...you don't need to know...if you have to ask\04 - El owora befame-ko (So, I'll come back).wav
Pre-gap length 0:00:01.43
Peak level 87.2 %
Track quality 100.0 %
Test CRC 353EEA2D
Copy CRC 353EEA2D
Copy OK
Track 5
Filename H:\upload\Hamiet Bluiett\...you don't need to know...if you have to ask\05 - If you have to ask, you don't need to know.wav
Pre-gap length 0:00:02.45
Peak level 98.4 %
Track quality 99.9 %
Test CRC E7C84513
Copy CRC E7C84513
Copy OK
Track 6
Filename H:\upload\Hamiet Bluiett\...you don't need to know...if you have to ask\06 - The king in the pallenquin.wav
Pre-gap length 0:00:01.70
Peak level 83.2 %
Track quality 100.0 %
Test CRC DEB41A95
Copy CRC DEB41A95
Copy OK
Track 7
Filename H:\upload\Hamiet Bluiett\...you don't need to know...if you have to ask\07 - Theme for L. Young- Goodbye pork pie hat.wav
Pre-gap length 0:00:02.55
Peak level 87.8 %
Track quality 100.0 %
Test CRC 3F456D8A
Copy CRC 3F456D8A
Copy OK
Track 8
Filename H:\upload\Hamiet Bluiett\...you don't need to know...if you have to ask\08 - Children at play.wav
Pre-gap length 0:00:02.55
Peak level 84.8 %
Track quality 100.0 %
Test CRC 4A4093DE
Copy CRC 4A4093DE
Copy OK
Track 9
Filename H:\upload\Hamiet Bluiett\...you don't need to know...if you have to ask\09 - The gift- One shot from the hip.wav
Pre-gap length 0:00:02.57
Peak level 92.3 %
Track quality 99.9 %
Test CRC 49295D3F
Copy CRC 49295D3F
Copy OK
Track 10
Filename H:\upload\Hamiet Bluiett\...you don't need to know...if you have to ask\10 - Circle of prayer.wav
Pre-gap length 0:00:01.70
Peak level 56.6 %
Track quality 100.0 %
Test CRC B2AF36A3
Copy CRC B2AF36A3
Copy OK
No errors occured
End of status report

другие релизы
09:23
585
Нет комментариев. Ваш будет первым!