Вы используете незарегистрированную версию компонента "Вкладки"!

Поиск

(jazz, modern creative, avant-garde) Portico Quartet - Abbey Road EP 01 2009 - 2009, FLAC (tracks+.cue) lossless

Треклист:


Portico Quartet - Abbey Road EP 01 2009 /
Жанр: jazz, modern creative, avant-garde
Год издания диска: 2009
Аудио кодек: FLAC (*.flac)
Тип рипа: tracks+.cue
Битрейт аудио: lossless
Продолжительность: 24`39
Источник (релизер): what.cd
Наличие сканов в содержимом раздачи: да
Треклист:
01 - The full Cathastrophe.flac
02 - Line (alternative Take 5).flac
03 - Cap Gun.flac
04 - Su-Bo?s mental Meltdown.flac
 
Лог создания рипа
Exact Audio Copy V0.99 prebeta 5 from 4. May 2009
EAC extraction logfile from 25. December 2010, 10:04
Portico Quartet / EP 01 Abbey Road
Used drive : ATAPI iHAS424 A Adapter: 0 ID: 0
Read mode : Secure
Utilize accurate stream : Yes
Defeat audio cache : Yes
Make use of C2 pointers : No
Read offset correction : 6
Overread into Lead-In and Lead-Out : No
Fill up missing offset samples with silence : Yes
Delete leading and trailing silent blocks : No
Null samples used in CRC calculations : Yes
Used interface : Native Win32 interface for Win NT & 2000
Gap handling : Appended to previous track
Used output format : Internal WAV Routines
Sample format : 44.100 Hz; 16 Bit; Stereo
TOC of the extracted CD
Track | Start | Length | Start sector | End sector
---------------------------------------------------------
1 | 0:00.00 | 7:18.16 | 0 | 32865
2 | 7:18.16 | 8:27.44 | 32866 | 70934
3 | 15:45.60 | 3:08.67 | 70935 | 85101
4 | 18:54.52 | 5:44.16 | 85102 | 110917
Track 1
Filename D:\temp\Portico Quartet\(2009) EP 01 Abbey Road\01 - The full Cathastrophe.wav
Pre-gap length 0:00:02.00
Peak level 99.2 %
Track quality 100.0 %
Test CRC 2E57C34C
Copy CRC 2E57C34C
Accurately ripped (confidence 3) [DC25E8DD]
Copy OK
Track 2
Filename D:\temp\Portico Quartet\(2009) EP 01 Abbey Road\02 - Line (alternative Take 5).wav
Pre-gap length 0:00:02.00
Peak level 90.3 %
Track quality 100.0 %
Test CRC EFED71D5
Copy CRC EFED71D5
Accurately ripped (confidence 3) [DACA0F3D]
Copy OK
Track 3
Filename D:\temp\Portico Quartet\(2009) EP 01 Abbey Road\03 - Cap Gun.wav
Pre-gap length 0:00:02.00
Peak level 98.8 %
Track quality 100.0 %
Test CRC 704E447A
Copy CRC 704E447A
Accurately ripped (confidence 3) [65473682]
Copy OK
Track 4
Filename D:\temp\Portico Quartet\(2009) EP 01 Abbey Road\04 - Su-Boґs mental Meltdown.wav
Pre-gap length 0:00:02.00
Peak level 99.0 %
Track quality 100.0 %
Test CRC 4B597293
Copy CRC 4B597293
Accurately ripped (confidence 3) [21696925]
Copy OK
All tracks accurately ripped
No errors occurred
End of status report
 
Содержание индексной карты (.CUE)
REM GENRE Jazz
REM DATE 2009
REM DISCID 2905C604
REM COMMENT ExactAudioCopy v0.99pb5
PERFORMER "Portico Quartet"
TITLE "Abbey Road EP 01"
FILE "01 - The full Cathastrophe.flac" WAVE
TRACK 01 AUDIO
TITLE "The full Cathastrophe"
PERFORMER "Portico Quartet"
INDEX 01 00:00:00
FILE "02 - Line (alternative Take 5).flac" WAVE
TRACK 02 AUDIO
TITLE "Line (alternative Take 5)"
PERFORMER "Portico Quartet"
INDEX 01 00:00:00
FILE "03 - Cap Gun.flac" WAVE
TRACK 03 AUDIO
TITLE "Cap Gun"
PERFORMER "Portico Quartet"
INDEX 01 00:00:00
FILE "04 - Su-Bo´s mental Meltdown.flac" WAVE
TRACK 04 AUDIO
TITLE "Su-Bo´s mental Meltdown"
PERFORMER "Portico Quartet"
INDEX 01 00:00:00
другие релизы
По всем вопросам пишите личное сообщение пользователю M0p94ok.
08:15
185
Нет комментариев. Ваш будет первым!