Поиск

(Jazz, Latin, World, Lounge) Pink Martini - 4 альбома, 1999-2010, FLAC (tracks+.cue), lossless

(Jazz, Latin, World, Lounge) Pink Martini - 4 альбома, 1999-2010, FLAC (tracks+.cue), lossless
Треклист:
Pink Martini - 4 альбома, 1999-2010
"Мы прямо-таки "выкапываем" из-под земли различные редкие и красивые ритмы и мелодии со всего света, чтобы скорректировав, сделать нечто современное..."
.

.

Жанр: Jazz, Latin, World, Lounge
Битрейт аудио: lossless
Общая продолжительность: 3:09:46
Официальный сайт
Страничка Wiki
Страничка на Last.fm

.
 
1999 - Sympathique
Год выпуска: 1999
Продолжительность: 0:47:23
Формат: FLAC (tracks + .cue)
Трэклист:
1. Amado Mio (Fisher / Roberts) 4:46
2. No Hay Problema (Marray) 6:09
3. Sympathique (Forbes / Lauderdale) 2:47
4. Que Sera Sera (Livingston / Evans) 4:11
5. La Soledad (Raphael / Lauderdale / Chopin) 5:37
6. Donde Estas, Yolanda? (Jimenez) 3:22
7. Andalucia (Lecouna) 3:36
8. Song of the Black Lizard (Miwa) 4:07
9. Never on Sunday (Hadjidakis) 4:53
10. Brazil (Barroso) 5:15
11. Lullaby (Forbes / Lauderdale) 2:12
 
Отчет EAC:
EAC extraction logfile from 30. September 2006, 14:32 for CD
Pink Martini / Sympathique
Used drive : HL-DT-STDVD-ROM GDR8163B Adapter: 1 ID: 1
Read mode : Secure with NO C2, accurate stream, disable cache
Read offset correction : 102
Overread into Lead-In and Lead-Out : Yes
Used output format : Internal WAV Routines
44.100 Hz; 16 Bit; Stereo
Other options :
Fill up missing offset samples with silence : Yes
Delete leading and trailing silent blocks : No
Installed external ASPI interface
Track 1
Filename C:\01 - Amado mio.wav
Pre-gap length 0:00:02.00
Peak level 100.0 %
Track quality 99.9 %
Test CRC 1C13C108
Copy CRC 1C13C108
Copy OK
Track 2
Filename C:\02 - No Hay Problema.wav
Pre-gap length 0:00:03.70
Peak level 100.0 %
Track quality 100.0 %
Test CRC 117D8D2A
Copy CRC 117D8D2A
Copy OK
Track 3
Filename C:\03 - Sympathique.wav
Pre-gap length 0:00:03.70
Peak level 100.0 %
Track quality 100.0 %
Test CRC B4D893E3
Copy CRC B4D893E3
Copy OK
Track 4
Filename C:\04 - Que Sera Sera.wav
Pre-gap length 0:00:03.36
Peak level 100.0 %
Track quality 100.0 %
Test CRC 2FFAF0B9
Copy CRC 2FFAF0B9
Copy OK
Track 5
Filename C:\05 - La Soledad.wav
Pre-gap length 0:00:03.68
Peak level 100.0 %
Track quality 99.9 %
Test CRC BAAF0B7A
Copy CRC BAAF0B7A
Copy OK
Track 6
Filename C:\06 - Donde Estas, Yolanda .wav
Pre-gap length 0:00:01.70
Peak level 99.7 %
Track quality 100.0 %
Test CRC 6330A756
Copy CRC 6330A756
Copy OK
Track 7
Filename C:\07 - Andalucia.wav
Pre-gap length 0:00:03.58
Peak level 100.0 %
Track quality 99.9 %
Test CRC 168B44D7
Copy CRC 168B44D7
Copy OK
Track 8
Filename C:\08 - Song of the Black Lizard.wav
Pre-gap length 0:00:03.37
Peak level 100.0 %
Track quality 100.0 %
Test CRC 6CADD771
Copy CRC 6CADD771
Copy OK
Track 9
Filename C:\09 - Never on Sunday.wav
Pre-gap length 0:00:03.57
Peak level 70.5 %
Track quality 100.0 %
Test CRC 8082C2C7
Copy CRC 8082C2C7
Copy OK
Track 10
Filename C:\10 - Brazil.wav
Pre-gap length 0:00:03.70
Peak level 100.0 %
Track quality 100.0 %
Test CRC 7D8B5C02
Copy CRC 7D8B5C02
Copy OK
Track 11
Filename C:\11 - Lullaby.wav
Pre-gap length 0:00:03.38
Peak level 65.7 %
Track quality 100.0 %
Test CRC 8B89D1CC
Copy CRC 8B89D1CC
Copy OK
No errors occured
End of status report
 
Audiocheker's log
Started at: вторник, 02. 12. 2008. - 0:07.48
11 files found
01 -===- G:\Downloads\Pink Martini - Sympathique (1999) [FLAC]\01 - Amado mio.flac
Extracted successfully
Conclusion: this track is CDDA with probability 99%
Tempfile successfully deleted.
02 -===- G:\Downloads\Pink Martini - Sympathique (1999) [FLAC]\02 - No Hay Problema.flac
Extracted successfully
Conclusion: this track is CDDA with probability 100%
Tempfile successfully deleted.
03 -===- G:\Downloads\Pink Martini - Sympathique (1999) [FLAC]\03 - Sympathique.flac
Extracted successfully
Conclusion: this track is CDDA with probability 100%
Tempfile successfully deleted.
04 -===- G:\Downloads\Pink Martini - Sympathique (1999) [FLAC]\04 - Que Sera Sera.flac
Extracted successfully
Conclusion: this track is CDDA with probability 100%
Tempfile successfully deleted.
05 -===- G:\Downloads\Pink Martini - Sympathique (1999) [FLAC]\05 - La Soledad.flac
Extracted successfully
Conclusion: this track is CDDA with probability 100%
Tempfile successfully deleted.
06 -===- G:\Downloads\Pink Martini - Sympathique (1999) [FLAC]\06 - Donde Estas, Yolanda .flac
Extracted successfully
Conclusion: this track is CDDA with probability 99%
Tempfile successfully deleted.
07 -===- G:\Downloads\Pink Martini - Sympathique (1999) [FLAC]\07 - Andalucia.flac
Extracted successfully
Conclusion: this track is CDDA with probability 100%
Tempfile successfully deleted.
08 -===- G:\Downloads\Pink Martini - Sympathique (1999) [FLAC]\08 - Song of the Black Lizard.flac
Extracted successfully
Conclusion: this track is CDDA with probability 99%
Tempfile successfully deleted.
09 -===- G:\Downloads\Pink Martini - Sympathique (1999) [FLAC]\09 - Never on Sunday.flac
Extracted successfully
Conclusion: this track is CDDA with probability 100%
Tempfile successfully deleted.
10 -===- G:\Downloads\Pink Martini - Sympathique (1999) [FLAC]\10 - Brazil.flac
Extracted successfully
Conclusion: this track is CDDA with probability 100%
Tempfile successfully deleted.
11 -===- G:\Downloads\Pink Martini - Sympathique (1999) [FLAC]\11 - Lullaby.flac
Extracted successfully
Conclusion: this track is CDDA with probability 100%
Tempfile successfully deleted.
Finished at: вторник, 02. 12. 2008. - 0:19.22 (operation time: 0:11.34)
Доп. информация:
Источник - другой трекер. Сканов, нет.Раздача осуществляется с любезного согласия оригинального релизера - patricia.
 
2004 - Hang on little tomato
Год выпуска: 2004
Продолжительность: 0:50:29
Формат: FLAC (tracks + .cue)
Трэклист:
1. Let's Never Stop Falling in Love (Lauderdale / Forbes) 3:03
2. Anna (El Negro Zumbon) (Vatro / Giordano) 2:34
3. Hang on Little Tomato (Abbey / Forbes / Lauderdale) 3:15
4. The Gardens of Sampson & Beasley (Forbes / Lauderdale) 4:01
5. Veronique (Tozian / Lauderdale) 3:17
6. Dansez-vous (Taylor / Forbes) 2:52
7. Lilly (Forbes / Lauderdale) 2:42
8. Autrefois (Forbes / Lauderdale) 3:37
9. U Plavu Zoru (Lalich / Lauderdale / Pink Martini) 5:58
10. Clementine (Forbes / Lauderdale) 3:50
11. Una Notte a Napoli (Clemente / Dynell / Forbes / Lauderdale) 4:43
12. Kikuchiyo to Mohshimasu (Yamagami / Suzuki) 4:30
13. Aspettami (Forbes / Lauderdale) 3:35
14. Song of the Black Swan (Villa-Lobos) 2:11
 
Отчет EAC:
EAC extraction logfile from 25. September 2006, 16:14 for CD
Pink Martini / Hang On Little Tomato
Used drive : HL-DT-STDVD-ROM GDR8163B Adapter: 1 ID: 1
Read mode : Secure with NO C2, accurate stream, disable cache
Read offset correction : 102
Overread into Lead-In and Lead-Out : Yes
Used output format : Internal WAV Routines
44.100 Hz; 16 Bit; Stereo
Other options :
Fill up missing offset samples with silence : Yes
Delete leading and trailing silent blocks : No
Native Win32 interface for Win NT & 2000
Track 1
Filename C:\01 - Let's Never Stop Falling In Love.wav
Pre-gap length 0:00:02.00
Peak level 98.8 %
Track quality 100.0 %
Test CRC F9517FD9
Copy CRC F9517FD9
Copy OK
Track 2
Filename C:\02 - Anna (el negro zumbon).wav
Peak level 98.8 %
Track quality 100.0 %
Test CRC 654613AD
Copy CRC 654613AD
Copy OK
Track 3
Filename C:\03 - Hang on Little Tomato.wav
Pre-gap length 0:00:02.00
Peak level 98.8 %
Track quality 99.9 %
Test CRC 9E2F6FD7
Copy CRC 9E2F6FD7
Copy OK
Track 4
Filename C:\04 - The Gardens of Sampson & Beasley.wav
Pre-gap length 0:00:01.77
Peak level 98.8 %
Track quality 100.0 %
Test CRC 6CAB2902
Copy CRC 6CAB2902
Copy OK
Track 5
Filename C:\05 - Veronique.wav
Peak level 98.8 %
Track quality 100.0 %
Test CRC C9FA5793
Copy CRC C9FA5793
Copy OK
Track 6
Filename C:\06 - Dansez-vous.wav
Pre-gap length 0:00:02.09
Peak level 97.8 %
Track quality 100.0 %
Test CRC 82309321
Copy CRC 82309321
Copy OK
Track 7
Filename C:\07 - Lilly.wav
Pre-gap length 0:00:01.08
Peak level 98.8 %
Track quality 100.0 %
Test CRC D2DF2EB7
Copy CRC D2DF2EB7
Copy OK
Track 8
Filename C:\08 - Autrefois.wav
Pre-gap length 0:00:01.98
Peak level 98.8 %
Track quality 100.0 %
Test CRC D9259203
Copy CRC D9259203
Copy OK
Track 9
Filename C:\09 - U Plavu Zoru.wav
Pre-gap length 0:00:01.08
Peak level 98.8 %
Track quality 100.0 %
Test CRC 4B7E9B4C
Copy CRC 4B7E9B4C
Copy OK
Track 10
Filename C:\10 - Clementine.wav
Pre-gap length 0:00:02.98
Peak level 98.8 %
Track quality 100.0 %
Test CRC BABE0CAF
Copy CRC BABE0CAF
Copy OK
Track 11
Filename C:\11 - Una Notte a Napoli.wav
Peak level 98.8 %
Track quality 100.0 %
Test CRC 7D9813B7
Copy CRC 7D9813B7
Copy OK
Track 12
Filename C:\12 - Kikuchiyo to Mohshimasu.wav
Pre-gap length 0:00:01.98
Peak level 98.8 %
Track quality 100.0 %
Test CRC 7ACF44EF
Copy CRC 7ACF44EF
Copy OK
Track 13
Filename C:\13 - Aspettami.wav
Pre-gap length 0:00:02.18
Peak level 98.8 %
Track quality 99.9 %
Test CRC 5A26A77A
Copy CRC 5A26A77A
Copy OK
Track 14
Filename C:\14 - Song Of The Black Swan.wav
Pre-gap length 0:00:03.24
Peak level 88.6 %
Track quality 100.0 %
Test CRC BACEC276
Copy CRC BACEC276
Copy OK
No errors occured
End of status report
 
Audiocheker's log
Started at: понедельник, 01. 12. 2008. - 23:29.24
14 files found
01 -===- G:\Downloads\Pink Martini - Hang on little tomato (2004) [FLAC]\01 - Let's Never Stop Falling In Love.flac
Extracted successfully
Conclusion: this track is CDDA with probability 100%
Tempfile successfully deleted.
02 -===- G:\Downloads\Pink Martini - Hang on little tomato (2004) [FLAC]\02 - Anna (el negro zumbon).flac
Extracted successfully
Conclusion: this track is CDDA with probability 85%
Tempfile successfully deleted.
03 -===- G:\Downloads\Pink Martini - Hang on little tomato (2004) [FLAC]\03 - Hang on Little Tomato.flac
Extracted successfully
Conclusion: this track is CDDA with probability 100%
Tempfile successfully deleted.
04 -===- G:\Downloads\Pink Martini - Hang on little tomato (2004) [FLAC]\04 - The Gardens of Sampson & Beasley.flac
Extracted successfully
Conclusion: this track is CDDA with probability 100%
Tempfile successfully deleted.
05 -===- G:\Downloads\Pink Martini - Hang on little tomato (2004) [FLAC]\05 - Veronique.flac
Extracted successfully
Conclusion: this track is CDDA with probability 100%
Tempfile successfully deleted.
06 -===- G:\Downloads\Pink Martini - Hang on little tomato (2004) [FLAC]\06 - Dansez-vous.flac
Extracted successfully
Conclusion: this track is CDDA with probability 100%
Tempfile successfully deleted.
07 -===- G:\Downloads\Pink Martini - Hang on little tomato (2004) [FLAC]\07 - Lilly.flac
Extracted successfully
Conclusion: this track is CDDA with probability 100%
Tempfile successfully deleted.
08 -===- G:\Downloads\Pink Martini - Hang on little tomato (2004) [FLAC]\08 - Autrefois.flac
Extracted successfully
Conclusion: this track is CDDA with probability 100%
Tempfile successfully deleted.
09 -===- G:\Downloads\Pink Martini - Hang on little tomato (2004) [FLAC]\09 - U Plavu Zoru.flac
Extracted successfully
Conclusion: this track is CDDA with probability 100%
Tempfile successfully deleted.
10 -===- G:\Downloads\Pink Martini - Hang on little tomato (2004) [FLAC]\10 - Clementine.flac
Extracted successfully
Conclusion: this track is CDDA with probability 100%
Tempfile successfully deleted.
11 -===- G:\Downloads\Pink Martini - Hang on little tomato (2004) [FLAC]\11 - Una Notte a Napoli.flac
Extracted successfully
Conclusion: this track is CDDA with probability 100%
Tempfile successfully deleted.
12 -===- G:\Downloads\Pink Martini - Hang on little tomato (2004) [FLAC]\12 - Kikuchiyo to Mohshimasu.flac
Extracted successfully
Conclusion: this track is CDDA with probability 99%
Tempfile successfully deleted.
13 -===- G:\Downloads\Pink Martini - Hang on little tomato (2004) [FLAC]\13 - Aspettami.flac
Extracted successfully
Conclusion: this track is CDDA with probability 100%
Tempfile successfully deleted.
14 -===- G:\Downloads\Pink Martini - Hang on little tomato (2004) [FLAC]\14 - Song Of The Black Swan.flac
Extracted successfully
Conclusion: this track is CDDA with probability 100%
Tempfile successfully deleted.
Finished at: понедельник, 01. 12. 2008. - 23:42.13 (operation time: 0:12.48)
Доп. информация:
Источник - другой трекер. Сканов, нет.Раздача осуществляется с любезного согласия оригинального релизера - patricia.
 
2007 - Hey Eugene!
Год выпуска: 2007
Продолжительность: 0:45:20
Формат: FLAC (tracks + .cue)
Трэклист:
1. Everywhere (Forbes / Lauderdale) 3:10
2. Tempo Perdido (Alves) 3:40
3. Mar Desconcido (Zarzar) 3:09
4. Taya Tan (Yamagami / Izumi) 2:39
5. City of Night (Forbes / Lauderdale) 4:16
6. Ojala (Lauderdale / Quinoy / Nishimoto / Forbes) 2:59
7. Bukra Wba'do (Mourad / Qorah) 3:52
8. Cante E Dance (Baker) 4:25
9. Hey Eugene (Forbes) 3:06
10. Syracuse (Salvador / Dimey) 3:46
11. Dosvedanya Mio Bombino (C. Forbes / M. Forbes) 4:35
12. Tea For Two (Youmans / Caesar) 5:02
 
Отчет EAC:
EAC extraction logfile from 2. December 2007, 10:27 for CD
Pink Martini / Hey Eugene!
Used drive : HL-DT-STDVD-ROM GDR8163B Adapter: 1 ID: 1
Read mode : Secure with NO C2, accurate stream, disable cache
Read offset correction : 102
Overread into Lead-In and Lead-Out : No
Used output format : Internal WAV Routines
44.100 Hz; 16 Bit; Stereo
Other options :
Fill up missing offset samples with silence : Yes
Delete leading and trailing silent blocks : No
Installed external ASPI interface
Track 1
Filename C:\01 - Everywhere.wav
Pre-gap length 0:00:02.00
Peak level 98.8 %
Track quality 100.0 %
Test CRC A148E175
Copy CRC A148E175
Copy OK
Track 2
Filename C:\02 - Tempo Perdido.wav
Pre-gap length 0:00:00.70
Peak level 98.8 %
Track quality 99.9 %
Test CRC D6E247FE
Copy CRC D6E247FE
Copy OK
Track 3
Filename C:\03 - Mar Desconocido.wav
Pre-gap length 0:00:01.90
Peak level 98.8 %
Track quality 100.0 %
Test CRC BD3679F3
Copy CRC BD3679F3
Copy OK
Track 4
Filename C:\04 - Taya Tan.wav
Pre-gap length 0:00:03.04
Peak level 95.8 %
Track quality 100.0 %
Test CRC 948AB0D3
Copy CRC 948AB0D3
Copy OK
Track 5
Filename C:\05 - City of Night.wav
Pre-gap length 0:00:02.34
Peak level 100.0 %
Track quality 100.0 %
Test CRC 3F42B2F2
Copy CRC 3F42B2F2
Copy OK
Track 6
Filename C:\06 - Ojala.wav
Pre-gap length 0:00:03.04
Peak level 98.8 %
Track quality 100.0 %
Test CRC 435B956F
Copy CRC 435B956F
Copy OK
Track 7
Filename C:\07 - Bukra wba'do.wav
Pre-gap length 0:00:03.04
Peak level 98.8 %
Track quality 100.0 %
Test CRC C5042182
Copy CRC C5042182
Copy OK
Track 8
Filename C:\08 - Cante e Dance.wav
Pre-gap length 0:00:04.08
Peak level 95.1 %
Track quality 100.0 %
Test CRC B67272C6
Copy CRC B67272C6
Copy OK
Track 9
Filename C:\09 - Hey Eugene.wav
Pre-gap length 0:00:02.56
Peak level 98.8 %
Track quality 99.9 %
Test CRC F84FFB80
Copy CRC F84FFB80
Copy OK
Track 10
Filename C:\10 - Syracuse.wav
Pre-gap length 0:00:04.50
Peak level 98.8 %
Track quality 100.0 %
Test CRC 8D0787CE
Copy CRC 8D0787CE
Copy OK
Track 11
Filename C:\11 - Dosvedanya Mio Bombino.wav
Pre-gap length 0:00:03.13
Peak level 98.8 %
Track quality 100.0 %
Test CRC 7C04B86C
Copy CRC 7C04B86C
Copy OK
Track 12
Filename C:\12 - Tea for Two.wav
Pre-gap length 0:00:06.16
Peak level 97.9 %
Track quality 100.0 %
Test CRC F0793920
Copy CRC F0793920
Copy OK
No errors occured
End of status report
 
Audiocheker's log
Started at: понедельник, 01. 12. 2008. - 23:45.51
12 files found
01 -===- G:\Downloads\Pink Martini - Hey Eugene! (2007) [FLAC]\01 - Everywhere.flac
Extracted successfully
Conclusion: this track is CDDA with probability 100%
Tempfile successfully deleted.
02 -===- G:\Downloads\Pink Martini - Hey Eugene! (2007) [FLAC]\02 - Tempo Perdido.flac
Extracted successfully
Conclusion: this track is CDDA with probability 100%
Tempfile successfully deleted.
03 -===- G:\Downloads\Pink Martini - Hey Eugene! (2007) [FLAC]\03 - Mar Desconocido.flac
Extracted successfully
Conclusion: this track is CDDA with probability 100%
Tempfile successfully deleted.
04 -===- G:\Downloads\Pink Martini - Hey Eugene! (2007) [FLAC]\04 - Taya Tan.flac
Extracted successfully
Conclusion: this track is CDDA with probability 100%
Tempfile successfully deleted.
05 -===- G:\Downloads\Pink Martini - Hey Eugene! (2007) [FLAC]\05 - City Of Night.flac
Extracted successfully
Conclusion: this track is CDDA with probability 100%
Tempfile successfully deleted.
06 -===- G:\Downloads\Pink Martini - Hey Eugene! (2007) [FLAC]\06 - Ojala.flac
Extracted successfully
Conclusion: this track is CDDA with probability 100%
Tempfile successfully deleted.
07 -===- G:\Downloads\Pink Martini - Hey Eugene! (2007) [FLAC]\07 - Bukra Wba'do.flac
Extracted successfully
Conclusion: this track is CDDA with probability 100%
Tempfile successfully deleted.
08 -===- G:\Downloads\Pink Martini - Hey Eugene! (2007) [FLAC]\08 - Cante E Dance.flac
Extracted successfully
Conclusion: this track is CDDA with probability 100%
Tempfile successfully deleted.
09 -===- G:\Downloads\Pink Martini - Hey Eugene! (2007) [FLAC]\09 - Hey Eugene.flac
Extracted successfully
Conclusion: this track is CDDA with probability 100%
Tempfile successfully deleted.
10 -===- G:\Downloads\Pink Martini - Hey Eugene! (2007) [FLAC]\10 - Syracuse.flac
Extracted successfully
Conclusion: this track is CDDA with probability 99%
Tempfile successfully deleted.
11 -===- G:\Downloads\Pink Martini - Hey Eugene! (2007) [FLAC]\11 - Dosvedanya Mio Bombino.flac
Extracted successfully
Conclusion: this track is CDDA with probability 100%
Tempfile successfully deleted.
12 -===- G:\Downloads\Pink Martini - Hey Eugene! (2007) [FLAC]\12 - Tea For Two.flac
Extracted successfully
Conclusion: this track is CDDA with probability 100%
Tempfile successfully deleted.
Finished at: понедельник, 01. 12. 2008. - 23:57.40 (operation time: 0:11.48)
Доп. информация:
Источник - другой трекер. Сканов, нет.Раздача осуществляется с любезного согласия оригинального релизера - patricia.
 
2010 - Joy To The World
Продолжительность: 0:46:33
Трэклист:
01. White Christmas (2:11)
02. White Christmas (Part II) (3:32)
03. Shchedryk (Ukranian Bell Carol) (3:01)
04. Santa Baby (2:38)
05. Elohai, N'tzor (3:21)
06. Little Drummer Boy (3:48)
07. Congratulations - A Happy New Year Song (2:53)
08. Do You Hear What I Hear? (3:59)
09. La Vergine Degli Angeli (3:12)
10. We Three Kings (5:07)
11. A Snowglobe Christmas (3:37)
12. Ocho Kandelikas (Eight Little Candles) (2:17)
13. Silent Night (3:38)
14. Auld Lang Syne (3:19)
 
EAC log
X Lossless Decoder version 20101107 (124.1)
XLD extraction logfile from 2010-11-12 00:30:02 -0500
Pink Martini / Joy To The World
Used drive : HL-DT-ST DVDRW GA32N (revision KC09)
Use cdparanoia mode : YES (CDParanoia III 10.2 engine)
Disable audio cache : OK for the drive with cache less than 2750KB
Make use of C2 pointers : NO
Read offset correction : 103
Max retry count : 100
Gap status : Analyzed, Appended
TOC of the extracted CD
Track | Start | Length | Start sector | End sector
---------------------------------------------------------
1 | 00:00:00 | 02:11:08 | 0 | 9832
2 | 02:11:08 | 03:32:02 | 9833 | 25734
3 | 05:43:10 | 03:00:53 | 25735 | 39287
4 | 08:43:63 | 02:37:49 | 39288 | 51111
5 | 11:21:37 | 03:20:51 | 51112 | 66162
6 | 14:42:13 | 03:48:33 | 66163 | 83295
7 | 18:30:46 | 02:53:29 | 83296 | 96299
8 | 21:24:00 | 03:58:70 | 96300 | 114219
9 | 25:22:70 | 03:11:60 | 114220 | 128604
10 | 28:34:55 | 05:07:32 | 128605 | 151661
11 | 33:42:12 | 03:36:64 | 151662 | 167925
12 | 37:19:01 | 02:17:20 | 167926 | 178220
13 | 39:36:21 | 03:38:07 | 178221 | 194577
14 | 43:14:28 | 03:18:51 | 194578 | 209478
All Tracks
Album gain : -6.20 dB
Peak : 1.000000
Track 01
Filename : /Users/davepriz/Desktop/Pink Martini - 2010 - Joy To The World [FLAC]/01 White Christmas.flac
Pre-gap length : 00:02:00
Track gain : -2.97 dB
Peak : 0.886261
CRC32 hash (test run) : 304F50B3
CRC32 hash : 304F50B3
CRC32 hash (skip zero) : 1BC28300
AccurateRip signature : 715339E0
->Track not present in AccurateRip database.
Statistics
Read error : 0
Skipped (treated as error) : 0
Edge jitter error (maybe fixed) : 0
Atom jitter error (maybe fixed) : 0
Drift error (maybe fixed) : 0
Dropped bytes error (maybe fixed) : 0
Duplicated bytes error (maybe fixed) : 0
Inconsistency in error sectors : 0
Track 02
Filename : /Users/davepriz/Desktop/Pink Martini - 2010 - Joy To The World [FLAC]/02 White Christmas (Part II).flac
Track gain : -5.05 dB
Peak : 0.950592
CRC32 hash (test run) : ADEC95C5
CRC32 hash : ADEC95C5
CRC32 hash (skip zero) : CFF6E30A
AccurateRip signature : DBC6C203
->Track not present in AccurateRip database.
Statistics
Read error : 0
Skipped (treated as error) : 0
Edge jitter error (maybe fixed) : 0
Atom jitter error (maybe fixed) : 0
Drift error (maybe fixed) : 0
Dropped bytes error (maybe fixed) : 0
Duplicated bytes error (maybe fixed) : 0
Inconsistency in error sectors : 0
Track 03
Filename : /Users/davepriz/Desktop/Pink Martini - 2010 - Joy To The World [FLAC]/03 Shchedryk (Ukranian Bell Carol).flac
Pre-gap length : 00:02:39
Track gain : -4.09 dB
Peak : 1.000000
CRC32 hash (test run) : 476E66D5
CRC32 hash : 476E66D5
CRC32 hash (skip zero) : F1CDFFE5
AccurateRip signature : FB8A0367
->Track not present in AccurateRip database.
Statistics
Read error : 0
Skipped (treated as error) : 0
Edge jitter error (maybe fixed) : 0
Atom jitter error (maybe fixed) : 0
Drift error (maybe fixed) : 0
Dropped bytes error (maybe fixed) : 0
Duplicated bytes error (maybe fixed) : 0
Inconsistency in error sectors : 0
Track 04
Filename : /Users/davepriz/Desktop/Pink Martini - 2010 - Joy To The World [FLAC]/04 Santa Baby.flac
Pre-gap length : 00:02:49
Track gain : -7.49 dB
Peak : 0.975433
CRC32 hash (test run) : B56BAC01
CRC32 hash : B56BAC01
CRC32 hash (skip zero) : AEF6A27D
AccurateRip signature : 4A9FDEDB
->Track not present in AccurateRip database.
Statistics
Read error : 0
Skipped (treated as error) : 0
Edge jitter error (maybe fixed) : 0
Atom jitter error (maybe fixed) : 0
Drift error (maybe fixed) : 0
Dropped bytes error (maybe fixed) : 0
Duplicated bytes error (maybe fixed) : 0
Inconsistency in error sectors : 0
Track 05
Filename : /Users/davepriz/Desktop/Pink Martini - 2010 - Joy To The World [FLAC]/05 Elohai, N'tzor.flac
Pre-gap length : 00:03:39
Track gain : -6.61 dB
Peak : 0.953094
CRC32 hash (test run) : 4EEB7C78
CRC32 hash : 4EEB7C78
CRC32 hash (skip zero) : E6F7BD34
AccurateRip signature : 5DF7F4A1
->Track not present in AccurateRip database.
Statistics
Read error : 0
Skipped (treated as error) : 0
Edge jitter error (maybe fixed) : 0
Atom jitter error (maybe fixed) : 0
Drift error (maybe fixed) : 0
Dropped bytes error (maybe fixed) : 0
Duplicated bytes error (maybe fixed) : 0
Inconsistency in error sectors : 0
Track 06
Filename : /Users/davepriz/Desktop/Pink Martini - 2010 - Joy To The World [FLAC]/06 Little Drummer Boy.flac
Pre-gap length : 00:02:39
Track gain : -6.79 dB
Peak : 0.989014
CRC32 hash (test run) : F14205C1
CRC32 hash : F14205C1
CRC32 hash (skip zero) : 96BEA930
AccurateRip signature : EDB37E9D
->Track not present in AccurateRip database.
Statistics
Read error : 0
Skipped (treated as error) : 0
Edge jitter error (maybe fixed) : 0
Atom jitter error (maybe fixed) : 0
Drift error (maybe fixed) : 0
Dropped bytes error (maybe fixed) : 0
Duplicated bytes error (maybe fixed) : 0
Inconsistency in error sectors : 0
Track 07
Filename : /Users/davepriz/Desktop/Pink Martini - 2010 - Joy To The World [FLAC]/07 Congratulations - A Happy New Year Song.flac
Pre-gap length : 00:02:49
Track gain : -4.70 dB
Peak : 0.955597
CRC32 hash (test run) : C2F2184B
CRC32 hash : C2F2184B
CRC32 hash (skip zero) : 2636D993
AccurateRip signature : 10DDBEFD
->Track not present in AccurateRip database.
Statistics
Read error : 0
Skipped (treated as error) : 0
Edge jitter error (maybe fixed) : 0
Atom jitter error (maybe fixed) : 0
Drift error (maybe fixed) : 0
Dropped bytes error (maybe fixed) : 0
Duplicated bytes error (maybe fixed) : 0
Inconsistency in error sectors : 0
Track 08
Filename : /Users/davepriz/Desktop/Pink Martini - 2010 - Joy To The World [FLAC]/08 Do You Hear What I Hear?.flac
Pre-gap length : 00:03:19
Track gain : -6.18 dB
Peak : 0.963318
CRC32 hash (test run) : 00685710
CRC32 hash : 00685710
CRC32 hash (skip zero) : 247F69BB
AccurateRip signature : ED477729
->Track not present in AccurateRip database.
Statistics
Read error : 0
Skipped (treated as error) : 0
Edge jitter error (maybe fixed) : 0
Atom jitter error (maybe fixed) : 0
Drift error (maybe fixed) : 0
Dropped bytes error (maybe fixed) : 0
Duplicated bytes error (maybe fixed) : 0
Inconsistency in error sectors : 0
Track 09
Filename : /Users/davepriz/Desktop/Pink Martini - 2010 - Joy To The World [FLAC]/09 La Vergine Degli Angeli.flac
Pre-gap length : 00:03:49
Track gain : -4.87 dB
Peak : 0.953827
CRC32 hash (test run) : BB3778BE
CRC32 hash : BB3778BE
CRC32 hash (skip zero) : CE3A4328
AccurateRip signature : DB860E0F
->Track not present in AccurateRip database.
Statistics
Read error : 0
Skipped (treated as error) : 0
Edge jitter error (maybe fixed) : 0
Atom jitter error (maybe fixed) : 0
Drift error (maybe fixed) : 0
Dropped bytes error (maybe fixed) : 0
Duplicated bytes error (maybe fixed) : 0
Inconsistency in error sectors : 0
Track 10
Filename : /Users/davepriz/Desktop/Pink Martini - 2010 - Joy To The World [FLAC]/10 We Three Kings.flac
Pre-gap length : 00:02:49
Track gain : -5.95 dB
Peak : 0.999969
CRC32 hash (test run) : AE333C8A
CRC32 hash : AE333C8A
CRC32 hash (skip zero) : DAFDBD03
AccurateRip signature : 999816E6
->Track not present in AccurateRip database.
Statistics
Read error : 0
Skipped (treated as error) : 0
Edge jitter error (maybe fixed) : 0
Atom jitter error (maybe fixed) : 0
Drift error (maybe fixed) : 0
Dropped bytes error (maybe fixed) : 0
Duplicated bytes error (maybe fixed) : 0
Inconsistency in error sectors : 0
Track 11
Filename : /Users/davepriz/Desktop/Pink Martini - 2010 - Joy To The World [FLAC]/11 A Snowglobe Christmas.flac
Pre-gap length : 00:03:19
Track gain : -6.04 dB
Peak : 0.969727
CRC32 hash (test run) : C123589A
CRC32 hash : C123589A
CRC32 hash (skip zero) : 3B372770
AccurateRip signature : EA9822A6
->Track not present in AccurateRip database.
Statistics
Read error : 0
Skipped (treated as error) : 0
Edge jitter error (maybe fixed) : 0
Atom jitter error (maybe fixed) : 0
Drift error (maybe fixed) : 0
Dropped bytes error (maybe fixed) : 0
Duplicated bytes error (maybe fixed) : 0
Inconsistency in error sectors : 0
Track 12
Filename : /Users/davepriz/Desktop/Pink Martini - 2010 - Joy To The World [FLAC]/12 Ocho Kandelikas (Eight Little Candles).flac
Pre-gap length : 00:02:39
Track gain : -6.65 dB
Peak : 0.999969
CRC32 hash (test run) : 7A1999BF
CRC32 hash : 7A1999BF
CRC32 hash (skip zero) : 208E77A7
AccurateRip signature : B4AF1224
->Track not present in AccurateRip database.
Statistics
Read error : 0
Skipped (treated as error) : 0
Edge jitter error (maybe fixed) : 0
Atom jitter error (maybe fixed) : 0
Drift error (maybe fixed) : 0
Dropped bytes error (maybe fixed) : 0
Duplicated bytes error (maybe fixed) : 0
Inconsistency in error sectors : 0
Track 13
Filename : /Users/davepriz/Desktop/Pink Martini - 2010 - Joy To The World [FLAC]/13 Silent Night.flac
Pre-gap length : 00:03:00
Track gain : -4.73 dB
Peak : 0.954651
CRC32 hash (test run) : 6C06A54B
CRC32 hash : 6C06A54B
CRC32 hash (skip zero) : 32DC9DFA
AccurateRip signature : 85121578
->Track not present in AccurateRip database.
Statistics
Read error : 0
Skipped (treated as error) : 0
Edge jitter error (maybe fixed) : 0
Atom jitter error (maybe fixed) : 0
Drift error (maybe fixed) : 0
Dropped bytes error (maybe fixed) : 0
Duplicated bytes error (maybe fixed) : 0
Inconsistency in error sectors : 0
Track 14
Filename : /Users/davepriz/Desktop/Pink Martini - 2010 - Joy To The World [FLAC]/14 Auld Lang Syne.flac
Pre-gap length : 00:03:19
Track gain : -7.45 dB
Peak : 0.974182
CRC32 hash (test run) : DEAEEFF0
CRC32 hash : DEAEEFF0
CRC32 hash (skip zero) : 38D8D199
AccurateRip signature : 871B1166
->Track not present in AccurateRip database.
Statistics
Read error : 0
Skipped (treated as error) : 0
Edge jitter error (maybe fixed) : 0
Atom jitter error (maybe fixed) : 0
Drift error (maybe fixed) : 0
Dropped bytes error (maybe fixed) : 0
Duplicated bytes error (maybe fixed) : 0
Inconsistency in error sectors : 0
No errors occurred
End of status report
 
auCDtect's log
-----------------------
DON'T MODIFY THIS FILE
-----------------------
PERFORMER: auCDtect Task Manager, ver. 1.5.1RC3 build 1.5.1.4
Copyright (c) 2008-2010 y-soft. All rights reserved
http://y-soft.org
ANALYZER: auCDtect: CD records authenticity detector, version 0.8.2
Copyright (c) 2004 Oleg Berngardt. All rights reserved.
Copyright (c) 2004 Alexander Djourik. All rights reserved.
FILE: 14 Auld Lang Syne.flac
Size: 23677017 Hash: 9A33C7B94E8CC37481BBF18FB227B344 Accuracy: -m0
Conclusion: CDDA 100%
Signature: 72F1710A78502C21BAB03C9A00DE5B9C534F15DE
FILE: 13 Silent Night.flac
Size: 20530557 Hash: 46B8863B565BC826C7001447CAA4941B Accuracy: -m0
Conclusion: CDDA 100%
Signature: 37AE8DEFFD8E4B65262DE642B264A69BF0FCEC38
FILE: 12 Ocho Kandelikas (Eight Little Candles).flac
Size: 15250095 Hash: 50CA79A30FB975AEF667ED76F250B094 Accuracy: -m0
Conclusion: CDDA 100%
Signature: 41C1C5F8D9D56952D2CA5575E9BAA8480C9F6A59
FILE: 11 A Snowglobe Christmas.flac
Size: 22297895 Hash: 7535FCEF712D949B21B3D76E90D700D2 Accuracy: -m0
Conclusion: CDDA 99%
Signature: B8B3FFF428D0DE2A32C1BCFF323A1C54362EADC7
FILE: 10 We Three Kings.flac
Size: 33892715 Hash: BE9D2C5227A6F39AFF923735010AD33A Accuracy: -m0
Conclusion: CDDA 100%
Signature: 23A0C5E18450904A017F1E26D676B18E61115FE8
FILE: 09 La Vergine Degli Angeli.flac
Size: 17558923 Hash: 0634A2BEED820FC8BA7FD449B0A1A39E Accuracy: -m0
Conclusion: CDDA 99%
Signature: D08FE4BA0CBD70528239EBBE1B0C2A1D5B7BFF1C
FILE: 08 Do You Hear What I Hear.flac
Size: 26009354 Hash: D445B91012F4119C27614B93F3711321 Accuracy: -m0
Conclusion: CDDA 100%
Signature: F2F05937ACA08E7ACF2000E397498A456E04C715
FILE: 07 Congratulations - A Happy New Year Song.flac
Size: 16774821 Hash: 29E85D0CE952A581F787885846723541 Accuracy: -m0
Conclusion: CDDA 100%
Signature: 9BD59850331CE9004371AE66FDEF796B1375E85F
FILE: 06 Little Drummer Boy.flac
Size: 20328212 Hash: 0165DD1AF377B3A0127178684C203DC7 Accuracy: -m0
Conclusion: CDDA 100%
Signature: 0DDF8E3DBC8BA0A254B692705D5C8D717157BCCF
FILE: 05 Elohai, N'tzor.flac
Size: 19411135 Hash: 5E08EF33F8708A0D453D5678B0548255 Accuracy: -m0
Conclusion: CDDA 100%
Signature: 607B54FA7C2B71260EF1BDF1B79B59A137CD6364
FILE: 04 Santa Baby.flac
Size: 16985209 Hash: 4CC842B59EAF5201200EA65134BEDCB0 Accuracy: -m0
Conclusion: CDDA 100%
Signature: 52A930775B012F811665304F353C92E22E1BE28A
FILE: 03 Shchedryk (Ukranian Bell Carol).flac
Size: 21437440 Hash: 98E0F671FCA7F005B2464658DA6EBD6A Accuracy: -m0
Conclusion: CDDA 100%
Signature: D2283FF507A9425879F940E64256D2D0AB6E3526
FILE: 02 White Christmas (Part II).flac
Size: 22381195 Hash: 60A0EF7C12B9C7F70D30A87AAEAD3940 Accuracy: -m0
Conclusion: CDDA 100%
Signature: C53AF9E51055126AE10F6DBE5AE1ED060E57632A
FILE: 01 White Christmas.flac
Size: 11162793 Hash: 0420FB24696F17866A1070DC625196C3 Accuracy: -m0
Conclusion: CDDA 100%
Signature: 6EA72F53212D73CB8A0DF2407828605AC18BCE99
 
.cue
TITLE "Joy To The World"
PERFORMER "Pink Martini"
REM GENRE "Holiday"
REM DATE "2010"
REM DISCNUMBER 1
REM TOTALDISCS 1
REM DISCID B20AE90E
FILE "01 White Christmas.wav" WAVE
TRACK 01 AUDIO
TITLE "White Christmas"
PERFORMER "Pink Martini"
ISRC USHNZ1000087
INDEX 01 00:00:00
FILE "02 White Christmas (Part II).wav" WAVE
TRACK 02 AUDIO
TITLE "White Christmas (Part II)"
PERFORMER "Pink Martini"
ISRC USHNZ1000098
INDEX 01 00:00:00
TRACK 03 AUDIO
TITLE "Shchedryk (Ukranian Bell Carol)"
PERFORMER "Pink Martini"
ISRC USHNZ1000088
INDEX 00 03:29:38
FILE "03 Shchedryk (Ukranian Bell Carol).wav" WAVE
INDEX 01 00:00:00
TRACK 04 AUDIO
TITLE "Santa Baby"
PERFORMER "Pink Martini"
ISRC USHNZ1000089
INDEX 00 02:58:04
FILE "04 Santa Baby.wav" WAVE
INDEX 01 00:00:00
TRACK 05 AUDIO
TITLE "Elohai, N'tzor"
PERFORMER "Pink Martini"
ISRC USHNZ1000090
INDEX 00 02:34:10
FILE "05 Elohai, N'tzor.wav" WAVE
INDEX 01 00:00:00
TRACK 06 AUDIO
TITLE "Little Drummer Boy"
PERFORMER "Pink Martini"
ISRC USHNZ0600027
INDEX 00 03:18:12
FILE "06 Little Drummer Boy.wav" WAVE
INDEX 01 00:00:00
TRACK 07 AUDIO
TITLE "Congratulations - A Happy New Year Song"
PERFORMER "Pink Martini"
ISRC USHNZ1000091
INDEX 00 03:45:59
FILE "07 Congratulations - A Happy New Year Song.wav" WAVE
INDEX 01 00:00:00
TRACK 08 AUDIO
TITLE "Do You Hear What I Hear?"
PERFORMER "Pink Martini"
ISRC USHNZ0800052
INDEX 00 02:50:10
FILE "08 Do You Hear What I Hear?.wav" WAVE
INDEX 01 00:00:00
TRACK 09 AUDIO
TITLE "La Vergine Degli Angeli"
PERFORMER "Pink Martini"
ISRC USHNZ1000092
INDEX 00 03:55:21
FILE "09 La Vergine Degli Angeli.wav" WAVE
INDEX 01 00:00:00
TRACK 10 AUDIO
TITLE "We Three Kings"
PERFORMER "Pink Martini"
ISRC USHNZ1000093
INDEX 00 03:09:11
FILE "10 We Three Kings.wav" WAVE
INDEX 01 00:00:00
TRACK 11 AUDIO
TITLE "A Snowglobe Christmas"
PERFORMER "Pink Martini"
ISRC USHNZ1000094
INDEX 00 05:04:13
FILE "11 A Snowglobe Christmas.wav" WAVE
INDEX 01 00:00:00
TRACK 12 AUDIO
TITLE "Ocho Kandelikas (Eight Little Candles)"
PERFORMER "Pink Martini"
ISRC USHNZ1000095
INDEX 00 03:34:25
FILE "12 Ocho Kandelikas (Eight Little Candles).wav" WAVE
INDEX 01 00:00:00
TRACK 13 AUDIO
TITLE "Silent Night"
PERFORMER "Pink Martini"
ISRC USHNZ1000096
INDEX 00 02:14:20
FILE "13 Silent Night.wav" WAVE
INDEX 01 00:00:00
TRACK 14 AUDIO
TITLE "Auld Lang Syne"
PERFORMER "Pink Martini"
ISRC USHNZ1000097
INDEX 00 03:34:63
FILE "14 Auld Lang Syne.wav" WAVE
INDEX 01 00:00:00
Источник - другой трекер. Сканов нет. Релизер - davepriz.
04:53
328
Нет комментариев. Ваш будет первым!