Поиск

(Jazz, Latin Jazz, Crossover Jazz) Dave Valentin & Herbie Mann - Two Amigos - 1990 [GRP: GRD-9606], WAVPack (image+.cue), lossless

(Jazz, Latin Jazz, Crossover Jazz) Dave Valentin & Herbie Mann - Two Amigos - 1990 [GRP: GRD-9606], WAVPack (image+.cue), lossless
Треклист:
Dave Valentin & Herbie Mann - Two Amigos
Жанр: Jazz, Latin Jazz, Crossover Jazz
Год выпуска диска: 1990
Производитель диска: GRP Records, Inc. (GRD-9606)
Аудио кодек: WAVPack
Тип рипа: image+.cue
Битрейт аудио: lossless
Продолжительность: 49:45
Источник: Собственные рипы
Треклист:
1. Bronx Bad Boys - 5:55
2. Moonlight Walk - 5:45
3. Jesse's Samba - 5:50
4. First Date - 4:51
5. Rambo the Cat - 2:57
6. Two Amigos - 5:23
7. Old Hill (Morro Velho) - 7:03
8. Savana - 4:01
9. Obsession - 7:41
Доп. информация:
МУЗЫКАНТЫ:
Dave Valentin - Flute, Percussion, Keyboards, Programming
Herbie Mann - Flute, Percussion, Electric Bass, Drums
Mark Falchook - Keyboards, Programming
Bill O'Connell - Piano, Keyboards
Oskar Cartaya - Electric Bass, Programming
Lincoln Goines - Bass
Rubén Rodríguez - Bass
Robert Ameen - Drums
Tony Cintron - Drums
Sammy Figueroa - Percussion
Marc Quiñones - Percussion
 
Отчёт ЕАС
Exact Audio Copy V0.99 prebeta 4 from 23. January 2008
EAC extraction logfile from 23. January 2009, 21:59
Dave Valentin & Herbie Mann / Two Amigos
Used drive : HL-DT-STDVDRAM GSA-4167B Adapter: 0 ID: 2
Read mode : Secure
Utilize accurate stream : Yes
Defeat audio cache : Yes
Make use of C2 pointers : No
Read offset correction : 667
Overread into Lead-In and Lead-Out : No
Fill up missing offset samples with silence : Yes
Delete leading and trailing silent blocks : No
Null samples used in CRC calculations : Yes
Used interface : Installed external ASPI interface
Used output format : User Defined Encoder
Selected bitrate : 128 kBit/s
Quality : High
Add ID3 tag : No
Command line compressor : G:\Program Files\Exact Audio Copy\wavpack.exe
Additional command line options : -hm -w "Title=%t" -w "Artist=%a" -w "Year=%y" -w "Genre=%m" %s %d
TOC of the extracted CD
Track | Start | Length | Start sector | End sector
---------------------------------------------------------
1 | 0:00.00 | 5:57.40 | 0 | 26814
2 | 5:57.40 | 5:47.37 | 26815 | 52876
3 | 11:45.02 | 5:53.05 | 52877 | 79356
4 | 17:38.07 | 4:51.70 | 79357 | 101251
5 | 22:30.02 | 2:59.05 | 101252 | 114681
6 | 25:29.07 | 5:24.68 | 114682 | 139049
7 | 30:54.00 | 7:06.00 | 139050 | 170999
8 | 38:00.00 | 4:03.47 | 171000 | 189271
9 | 42:03.47 | 7:41.40 | 189272 | 223886
Range status and errors
Selected range
Filename F:\WAV\Dave Valentin & Herbie Mann - Two Amigos.wav
Peak level 100.0 %
Range quality 100.0 %
Test CRC 16A23554
Copy CRC 16A23554
Copy OK
No errors occurred
AccurateRip summary
Track 1 not present in database
Track 2 not present in database
Track 3 not present in database
Track 4 not present in database
Track 5 not present in database
Track 6 not present in database
Track 7 not present in database
Track 8 not present in database
Track 9 not present in database
None of the tracks are present in the AccurateRip database
End of status report
05:28
316
Нет комментариев. Ваш будет первым!