Поиск

(Jazz / Latin Jazz / Crossover Jazz) Airto Moreira - I'm Fine How Are You - 1977, FLAC (tracks), lossless

(Jazz / Latin Jazz / Crossover Jazz) Airto Moreira - I'm Fine How Are You - 1977, FLAC (tracks), lossless
Треклист:
Airto Moreira - I'm Fine How Are You
Жанр: Jazz / Latin Jazz / Crossover Jazz
Год выпуска диска: 1977
Производитель диска: Warner Bros.
Релиз от: scofild
Аудио кодек: FLAC
Тип рипа: tracks
Битрейт аудио: lossless
Продолжительность: 38:54
Трэклист:
01. I'm Fine, How Are You? (Moreira) 05:14
02. Meni Devol (Fattoruso, Rada) 05:12
03. La Tumbadora (Fattoruso, Rada) 03:38
04. The Happy People (Moreira) 03:49
05. The Road Is Hard (But We're Going To Make It) (Purim) 05:35
06. La Cumbia De Anders (Fattoruso, Rada) 04:23
07. Celebration Suite (Moreira) 04:19
08. Nativity (McNabb, Moreira, Pastorius) 06:44
Доп. информация:
 
Personnel:
Tom Scott (Flute, Saxophone);
Raul de Souza (Trombone);
Ruben Rada (Vocals);
Flora Purim, Maria Fattoruso (Arranger, Vocals, Vocals (bckgr);
Manolo Badrena, Laudir DeOliveira (Percussion);
Hugo Fattoruso (Arranger, Keyboards);
Charles "Icarus" Johnson, Oscar Neves (Guitar);
Jaco Pastorius, Abraham Laboriel, Byron Miller (Bass);
Airto Moreira (Percussion, Arranger, Drums, Vocals, Vocals (bckgr).
 
log
Exact Audio Copy V0.99 prebeta 4 from 23. January 2008
EAC extraction logfile from 27. February 2008, 22:58
Airto Moreira / I'm Fine, How Are You?
Used drive : HP DVD Writer 640v Adapter: 7 ID: 1
Read mode : Secure
Utilize accurate stream : Yes
Defeat audio cache : Yes
Make use of C2 pointers : No
Read offset correction : 618
Overread into Lead-In and Lead-Out : No
Fill up missing offset samples with silence : Yes
Delete leading and trailing silent blocks : No
Null samples used in CRC calculations : Yes
Used interface : Installed external ASPI interface
Gap handling : Appended to previous track
Used output format : User Defined Encoder
Selected bitrate : 192 kBit/s
Quality : High
Add ID3 tag : No
Command line compressor : G:\Program Files\MEDIA\filters\Flac official\FLAC\flac.exe
Additional command line options : -8 -V -T "ARTIST=%a" -T "TITLE=%t" -T "ALBUM=%g" -T "DATE=%y" -T "TRACKNUMBER=%n" -T "GENRE=%m" -T "COMMENT=EAC FLAC -8" %s
TOC of the extracted CD
Track | Start | Length | Start sector | End sector
---------------------------------------------------------
1 | 0:00.00 | 5:14.00 | 0 | 23549
2 | 5:14.00 | 5:12.37 | 23550 | 46986
3 | 10:26.37 | 3:37.40 | 46987 | 63301
4 | 14:04.02 | 3:49.05 | 63302 | 80481
5 | 17:53.07 | 5:34.73 | 80482 | 105604
6 | 23:28.05 | 4:22.55 | 105605 | 125309
7 | 27:50.60 | 4:18.57 | 125310 | 144716
8 | 32:09.42 | 6:43.73 | 144717 | 175014
Track 1
Filename E:\uTORRENT\ups\Airto Moreira - I'm Fine How Are You (1977) [FLAC]\01 - I'm Fine, How Are You .wav
Pre-gap length 0:00:02.00
Peak level 100.0 %
Track quality 100.0 %
Test CRC E2910692
Copy CRC E2910692
Track not present in AccurateRip database
Copy OK
Track 2
Filename E:\uTORRENT\ups\Airto Moreira - I'm Fine How Are You (1977) [FLAC]\02 - Meni Devol.wav
Pre-gap length 0:00:07.65
Peak level 100.0 %
Track quality 99.9 %
Test CRC F910C4C8
Copy CRC F910C4C8
Track not present in AccurateRip database
Copy OK
Track 3
Filename E:\uTORRENT\ups\Airto Moreira - I'm Fine How Are You (1977) [FLAC]\03 - La Tumbadora.wav
Pre-gap length 0:00:07.65
Peak level 83.3 %
Track quality 100.0 %
Test CRC EF9FCF0F
Copy CRC EF9FCF0F
Track not present in AccurateRip database
Copy OK
Track 4
Filename E:\uTORRENT\ups\Airto Moreira - I'm Fine How Are You (1977) [FLAC]\04 - The Happy People.wav
Pre-gap length 0:00:07.65
Peak level 84.2 %
Track quality 100.0 %
Test CRC D6F43C75
Copy CRC D6F43C75
Track not present in AccurateRip database
Copy OK
Track 5
Filename E:\uTORRENT\ups\Airto Moreira - I'm Fine How Are You (1977) [FLAC]\05 - The Road Is Hard (But We're Going To Make It).wav
Pre-gap length 0:00:07.65
Peak level 96.9 %
Track quality 100.0 %
Test CRC 1ACB0585
Copy CRC 1ACB0585
Track not present in AccurateRip database
Copy OK
Track 6
Filename E:\uTORRENT\ups\Airto Moreira - I'm Fine How Are You (1977) [FLAC]\06 - La Cumbia De Anders.wav
Pre-gap length 0:00:07.65
Peak level 69.2 %
Track quality 100.0 %
Test CRC 4B704911
Copy CRC 4B704911
Track not present in AccurateRip database
Copy OK
Track 7
Filename E:\uTORRENT\ups\Airto Moreira - I'm Fine How Are You (1977) [FLAC]\07 - Celebration Suite.wav
Pre-gap length 0:00:07.65
Peak level 94.9 %
Track quality 100.0 %
Test CRC 9CCAFEEE
Copy CRC 9CCAFEEE
Track not present in AccurateRip database
Copy OK
Track 8
Filename E:\uTORRENT\ups\Airto Moreira - I'm Fine How Are You (1977) [FLAC]\08 - Nativity.wav
Pre-gap length 0:00:07.65
Peak level 88.1 %
Track quality 100.0 %
Test CRC 6D3DD574
Copy CRC 6D3DD574
Track not present in AccurateRip database
Copy OK
None of the tracks are present in the AccurateRip database
No errors occurred
End of status report
 
Audiochecker
Started at: четверг, 27. 11. 2008. - 15:29.54
8 files found
1 -===- F:\My own private\music\AM-IFHAY\Airto Moreira - I'm Fine How Are You (1977) [FLAC]\01 - I'm Fine, How Are You .flac
Extracted successfully
Conclusion: this track is CDDA with probability 100%
Tempfile successfully deleted.
2 -===- F:\My own private\music\AM-IFHAY\Airto Moreira - I'm Fine How Are You (1977) [FLAC]\02 - Meni Devol.flac
Extracted successfully
Conclusion: this track is CDDA with probability 100%
Tempfile successfully deleted.
3 -===- F:\My own private\music\AM-IFHAY\Airto Moreira - I'm Fine How Are You (1977) [FLAC]\03 - La Tumbadora.flac
Extracted successfully
Conclusion: this track is CDDA with probability 100%
Tempfile successfully deleted.
4 -===- F:\My own private\music\AM-IFHAY\Airto Moreira - I'm Fine How Are You (1977) [FLAC]\04 - The Happy People.flac
Extracted successfully
Conclusion: this track is CDDA with probability 100%
Tempfile successfully deleted.
5 -===- F:\My own private\music\AM-IFHAY\Airto Moreira - I'm Fine How Are You (1977) [FLAC]\05 - The Road Is Hard (But We're Going To Make It).flac
Extracted successfully
Conclusion: this track is CDDA with probability 100%
Tempfile successfully deleted.
6 -===- F:\My own private\music\AM-IFHAY\Airto Moreira - I'm Fine How Are You (1977) [FLAC]\06 - La Cumbia De Anders.flac
Extracted successfully
Conclusion: this track is CDDA with probability 100%
Tempfile successfully deleted.
7 -===- F:\My own private\music\AM-IFHAY\Airto Moreira - I'm Fine How Are You (1977) [FLAC]\07 - Celebration Suite.flac
Extracted successfully
Conclusion: this track is CDDA with probability 100%
Tempfile successfully deleted.
8 -===- F:\My own private\music\AM-IFHAY\Airto Moreira - I'm Fine How Are You (1977) [FLAC]\08 - Nativity.flac
Extracted successfully
Conclusion: this track is CDDA with probability 100%
Tempfile successfully deleted.
Finished at: четверг, 27. 11. 2008. - 15:34.47 (operation time: 0:04.52)
04:39
635
Нет комментариев. Ваш будет первым!