Поиск

(Jazz, Latin Jazz, Afro-Cuban Jazz, Cuban Jazz) Arturo Sandoval - Danzon (Dance On) - 1993, APE (image+.cue), lossless

(Jazz, Latin Jazz, Afro-Cuban Jazz, Cuban Jazz) Arturo Sandoval - Danzon (Dance On) - 1993, APE (image+.cue), lossless
Треклист:
Arturo Sandoval - Danzon (Dance On)
[img=right] [/img]
Жанр: Jazz, Latin Jazz, Afro-Cuban Jazz, Cuban Jazz
Год выпуска диска: 1993
Аудио кодек: APE
Тип рипа: image+.cue
Битрейт аудио: lossless
Продолжительность: 53:56
Трэклист:
1. Conga (Intro) (Sandoval)
2. Africa (Sandoval)
3. Groovin' High (Gillespie/Stone)
4. A Mis Abuelos (Sandoval)
5. Tres Palabras (Farres)
6. Danzon (Sandoval)
7. Suavito (Gomez)
8. Conjunto (Sandoval)
9. Guaguancу (Sandoval)
10. Coconut Groove (Sandoval)
11. Conga (Revisited) (Sandoval)
Доп. информация: Bill Cosby - Percussion, Timbales, Vocals
Vikki Carr - Vocals
Gloria Estefan - Vocals
Arturo Sandoval - Synthesizer, Percussion, Piano, Trumpet, Arranger,
Flugelhorn, Timbales, Vocals, Producer, Clapping, Scat
Dave Valentin - Flute
Giovanni Hidalgo - Percussion, Timbales, Quinto, Itotele
Danilo Perez - Piano
Rene Toledo - Guitar (Acoustic), Guitar
Willy Chirino - Vocals
Carlos Gomez - Percussion, Bongos, Conga, Iya, Guiro, Chequere
Kenny Anderson - Sax (Alto), Sax (Tenor)
Ed Calle - Flute, Saxophone, Sax (Baritone), Sax (Tenor)
Sal Cuevas - Bass, Ampeg Baby Bass
Richard Eddy - Synthesizer, Bass, Arranger, Drums, Producer, Fender Rhodes
Felix Gomez - Piano
Peter Gonzalez - Vocals
Orlando Hernandez - Drums, Clapping
Rigo Herrera - Conga, Stick, Okonkolo
Roger Ingram - Trumpet
Juan Nogueras - Percussion, Conga Cheito
Quinonez - Vocals
Rita Quintero - Vocals
Eddie Rivera - Bass
Dana Teboe - Trombone
 
Лог EAC
Exact Audio Copy V0.99 prebeta 3 from 28. July 2007
EAC extraction logfile from 14. September 2008, 22:16
Arturo Sandoval / Danzon
Used drive : PIONEER DVD-RW DVR-112D Adapter: 5 ID: 0
Read mode : Secure
Utilize accurate stream : Yes
Defeat audio cache : Yes
Make use of C2 pointers : No
Read offset correction : 48
Overread into Lead-In and Lead-Out : No
Fill up missing offset samples with silence : Yes
Delete leading and trailing silent blocks : No
Null samples used in CRC calculations : Yes
Used interface : Native Win32 interface for Win NT & 2000
Used output format : Monkey's Audio Lossless Encoder
Selected bitrate : High Lossless Compression
Quality : High
Add ID3 tag : Yes
Command line compressor : C:\Program Files\Monkey's Audio\MAC.exe
Additional command line options : %s %d -c3000
TOC of the extracted CD
Track | Start | Length | Start sector | End sector
---------------------------------------------------------
1 | 0:00.00 | 1:13.55 | 0 | 5529
2 | 1:13.55 | 5:42.05 | 5530 | 31184
3 | 6:55.60 | 5:04.47 | 31185 | 54031
4 | 12:00.32 | 5:25.18 | 54032 | 78424
5 | 17:25.50 | 4:38.32 | 78425 | 99306
6 | 22:04.07 | 6:17.60 | 99307 | 127641
7 | 28:21.67 | 5:45.25 | 127642 | 153541
8 | 34:07.17 | 6:01.63 | 153542 | 180679
9 | 40:09.05 | 6:01.05 | 180680 | 207759
10 | 46:10.10 | 6:22.07 | 207760 | 236416
11 | 52:32.17 | 1:23.64 | 236417 | 242705
Range status and errors
Selected range
Filename D:\Documents\Lss\New_Rip\Arturo Sandoval - Danzon\Arturo Sandoval - Danzon.wav
Peak level 99.8 %
Range quality 99.9 %
Copy CRC 36ACD407
Copy OK
No errors occurred
End of status report
02:42
361
Нет комментариев. Ваш будет первым!