Поиск

(Jazz, Latin, Fusion) Jorge Dalto - Urban Oasis - 1985, FLAC (image+.cue), lossless

Треклист:
Jorge Dalto - Urban Oasis
Жанр: Jazz, Latin, Fusion
Год выпуска диска: 1985
Производитель диска: USA
Аудио кодек: FLAC
Тип рипа: image+.cue
Битрейт аудио: lossless
Продолжительность: 43:73
Трэклист:
1- Samba All Day Long
2- The Love Of My Life
3- Killer Joe
4- Ease My Pain
5- Sky Dive
6- La Costa
7- Sentido De Sete
Доп. информация:
Don´t miss this record!. It´s a great Argentinian piano player, playing great Jazz Latin music!!! Very rare record!
 
Отчет EAC
Exact Audio Copy V0.99 prebeta 4 from 23. January 2008
Archivo Log de extracciones desde 3. Abril 2009, 10:36
Jorge Dalto / Urban Oasis
Usar unidad : PIONEER DVD-RW DVR-112D Adapter: 3 ID: 1
Modo de Lectura : Seguro
Utilizar Corriente Exacta : Sí
Descartar Audio caché : Sí
Utilizar los punteros C2 : No
Corrección de Desplazamiento de Lectura : 0
Sobreleer tanto en Lead-In como en Lead-Out : No
Rellenar las muestras faltantes con silencios : Sí
Eliminar silencios inicial y final : No
Se han usado muestras nulas en los cálculos CRC : Sí
Interfaz usada : Interfaz propio de Win32 para Windowns NT y 2000
Formato de Salida utilizado : Compresor definido por el usuario
Bitrate seleccionado : 768 kBit/s
Calidad : Alta
Añadir Etiqueta ID3 : No
Compresor de linea de comandos : C:\Archivos de programa\Exact Audio Copy\FLAC\FLAC.EXE
Opciones adicionales en línea de comandos : -6 -V -T "ARTIST=%a" -T "TITLE=%t" -T "ALBUM=%g" -T "DATE=%y" -T "TRACKNUMBER=%n" -T "GENRE=%m" -T "COMMENT=%e" %s -o %d
TOC del CD extraido
Pista | Inicio | Duración | Sector inicial | Sector final
-------------------------------------------------------------
1 | 0:00.37 | 6:26.40 | 37 | 29026
2 | 6:27.02 | 5:43.55 | 29027 | 54806
3 | 12:10.57 | 6:05.63 | 54807 | 82244
4 | 18:16.45 | 5:06.52 | 82245 | 105246
5 | 23:23.22 | 6:40.20 | 105247 | 135266
6 | 30:03.42 | 8:00.65 | 135267 | 171331
7 | 38:04.32 | 6:16.23 | 171332 | 199554
Gama de estados y errores
Seleccionar gama
Nombre de Archivo D:\Mis Documentos\Mi Música\Urban Oasis\Jorge Dalto - Urban Oasis.wav
Nivel Pico 100.0 %
Gama de Calidad 100.0 %
Copiar CRC 5CBF52BB
Copia OK
Sin Errores
Final del Informe
I don't speak russian. Forgive me. I have the share spirit. I'm making the best i can in this fantastic forum. Please, leave your comments in english or spanish, so i'll be able to participate.
Я не говорю по-русски. Простите меня. Зато у меня командный дух и я делаю, что могу в этом фантастическом форуме. Пожалуйста, оставляйте свои комментарии на английском или испанском языках, так чтобы я мог принять участие в обсуждении.
06:40
384
Нет комментариев. Ваш будет первым!