Поиск

(Jazz, Latin) Esperanza Spalding — Esperanza - 2008, FLAC (tracks+.cue), lossless

(Jazz, Latin) Esperanza Spalding — Esperanza - 2008, FLAC (tracks+.cue), lossless
Треклист:
Esperanza Spalding — Esperanza
Жанр: Jazz, Latin
Год выпуска диска: 2008
Производитель диска: USA
Аудио кодек: FLAC
Тип рипа: tracks+.cue
Продолжительность: 1:07:51
Трэклист:
  1. Ponta de areia
  2. I know you know
  3. Fall in
  4. I adore you
  5. Body & soul
  6. She got to you
  7. Precious
  8. Mela
  9. Love in time
  10. Espera
  11. If that's true
  12. Samba em preludio
http://en.wikipedia.org/wiki/Esperanza_Spalding
http://www.last.fm/music/Esperanza+Spalding
 
Log
Exact Audio Copy V0.99 prebeta 4 from 23. January 2008
EAC extraction logfile from 4. March 2009, 16:46
Esperanza Spalding / Esperanza
Used drive : CyberDrvCW078D CD-R/RW Adapter: 1 ID: 0
Read mode : Secure
Utilize accurate stream : Yes
Defeat audio cache : Yes
Make use of C2 pointers : No
Read offset correction : 733
Overread into Lead-In and Lead-Out : No
Fill up missing offset samples with silence : Yes
Delete leading and trailing silent blocks : No
Null samples used in CRC calculations : Yes
Used interface : Native Win32 interface for Win NT & 2000
Gap handling : Appended to previous track
Used output format : User Defined Encoder
Selected bitrate : 768 kBit/s
Quality : High
Add ID3 tag : No
Command line compressor : C:\Program Files\Exact Audio Copy\FLAC\FLAC.EXE
Additional command line options : -6 -V -T "ARTIST=%a" -T "TITLE=%t" -T "ALBUM=%g" -T "DATE=%y" -T "TRACKNUMBER=%n" -T "GENRE=%m" -T "COMMENT=%e" %s -o %d
TOC of the extracted CD
Track | Start | Length | Start sector | End sector
---------------------------------------------------------
1 | 0:00.00 | 5:39.35 | 0 | 25459
2 | 5:39.35 | 3:46.61 | 25460 | 42470
3 | 9:26.21 | 3:57.05 | 42471 | 60250
4 | 13:23.26 | 7:27.15 | 60251 | 93790
5 | 20:50.41 | 8:01.55 | 93791 | 129920
6 | 28:52.21 | 4:29.22 | 129921 | 150117
7 | 33:21.43 | 4:24.50 | 150118 | 169967
8 | 37:46.18 | 6:57.46 | 169968 | 201288
9 | 44:43.64 | 5:47.18 | 201289 | 227331
10 | 50:31.07 | 4:40.06 | 227332 | 248337
11 | 55:11.13 | 7:33.22 | 248338 | 282334
12 | 62:44.35 | 5:11.47 | 282335 | 305706
Track 1
Filename C:\Documents and Settings\Owner\My Documents\Esperanza Spalding - Esperanza\01 - Ponta De Areia.wav
Pre-gap length 0:00:02.00
Peak level 98.5 %
Track quality 100.0 %
Test CRC E04B414A
Copy CRC E04B414A
Copy OK
Track 2
Filename C:\Documents and Settings\Owner\My Documents\Esperanza Spalding - Esperanza\02 - I Know You Know.wav
Peak level 90.9 %
Track quality 99.9 %
Test CRC 30421CE5
Copy CRC 30421CE5
Copy OK
Track 3
Filename C:\Documents and Settings\Owner\My Documents\Esperanza Spalding - Esperanza\03 - Fall In.wav
Pre-gap length 0:00:01.16
Peak level 68.2 %
Track quality 100.0 %
Test CRC 5CE25D48
Copy CRC 5CE25D48
Copy OK
Track 4
Filename C:\Documents and Settings\Owner\My Documents\Esperanza Spalding - Esperanza\04 - I Adore You.wav
Peak level 93.0 %
Track quality 100.0 %
Test CRC 6B0EE88C
Copy CRC 6B0EE88C
Copy OK
Track 5
Filename C:\Documents and Settings\Owner\My Documents\Esperanza Spalding - Esperanza\05 - Body & Soul.wav
Peak level 98.5 %
Track quality 99.9 %
Test CRC A31CFB4E
Copy CRC A31CFB4E
Copy OK
Track 6
Filename C:\Documents and Settings\Owner\My Documents\Esperanza Spalding - Esperanza\06 - She Got To You.wav
Peak level 96.8 %
Track quality 99.8 %
Test CRC 4AE3D8F3
Copy CRC 4AE3D8F3
Copy OK
Track 7
Filename C:\Documents and Settings\Owner\My Documents\Esperanza Spalding - Esperanza\07 - Precious.wav
Pre-gap length 0:00:00.73
Peak level 95.5 %
Track quality 99.9 %
Test CRC 540AE054
Copy CRC 540AE054
Copy OK
Track 8
Filename C:\Documents and Settings\Owner\My Documents\Esperanza Spalding - Esperanza\08 - Mela.wav
Pre-gap length 0:00:00.32
Peak level 95.0 %
Track quality 100.0 %
Test CRC 4E6845AD
Copy CRC 4E6845AD
Copy OK
Track 9
Filename C:\Documents and Settings\Owner\My Documents\Esperanza Spalding - Esperanza\09 - Love In Time.wav
Pre-gap length 0:00:01.24
Peak level 97.3 %
Track quality 100.0 %
Test CRC 4B03FA31
Copy CRC 4B03FA31
Copy OK
Track 10
Filename C:\Documents and Settings\Owner\My Documents\Esperanza Spalding - Esperanza\10 - Espera.wav
Pre-gap length 0:00:01.24
Peak level 92.8 %
Track quality 100.0 %
Test CRC B3B015A1
Copy CRC B3B015A1
Copy OK
Track 11
Filename C:\Documents and Settings\Owner\My Documents\Esperanza Spalding - Esperanza\11 - If That's True.wav
Pre-gap length 0:00:01.23
Peak level 98.5 %
Track quality 100.0 %
Test CRC E3C00EF8
Copy CRC E3C00EF8
Copy OK
Track 12
Filename C:\Documents and Settings\Owner\My Documents\Esperanza Spalding - Esperanza\12 - Samba Em Preludio.wav
Pre-gap length 0:00:01.54
Peak level 54.0 %
Track quality 99.8 %
Test CRC 5217A952
Copy CRC 5217A952
Copy OK
No errors occurred
End of status report
Download available for power users only.
05:27
236
Нет комментариев. Ваш будет первым!