Поиск

(Jazz) Kenny G - Miracles [The Holiday Album] - 1994, APE (image + .cue), lossless

(Jazz) Kenny G - Miracles [The Holiday Album] - 1994, APE (image + .cue), lossless
Треклист:
Kenny G - Miracles [The Holiday Album]
Жанр: Jazz
Год выпуска диска: 1994
Производитель диска: Germany
Формат: APE (image + .cue)
Битрейт аудио: lossless
Продолжительность: 43:49.67
Трэклист:
01. Winter Wonderland (3:03)
02. White Christmas (3:03)
03. Have Yourself A Merry Little Christmas (3:58)
04. The Christmas Song (4:04)
05. Silent Night (3:47)
06. Brahms Lullaby (3:16)
07. Greensleeves (3:29)
08. Miracles (2:33)
09. Away In A Manger (2:39)
10. The Chanukah Song (2:31)
11. Little Drummer Boy (4:05)
12. Silver Bells (4:01)
13. Spring Breeze (3:19)
Доп. информация об исполнителе - http://en.wikipedia.org/wiki/Kenny_G
 
EAC log
Exact Audio Copy V0.99 prebeta 3 from 28. July 2007
Отчёт EAC об извлечении, выполненном 6. апреля 2008, 19:03
Kenny G / Miracles
Дисковод: HL-DT-STDVD-ROM GDR8163B Adapter: 1 ID: 1
Режим чтения : Достоверность
Использование точного потока : Да
Отключение кэша аудио : Да
Использование указателей C2 : Нет
Коррекция смещения при чтении : 102
Способность читать области Lead-in и Lead-out : Нет
Заполнение пропущенных сэмплов тишиной : Да
Удаление блоков с тишиной в начале и конце : Нет
При вычислениях CRC использовались нулевые сэмплы : Нет
Интерфейс : Встроенный Win32-интерфейс для Win NT/2000
Выходной формат : Внутренние WAV-операции
Формат сэмплов : 44.100 Гц; 16 бит; стерео
TOC извлечённого CD
Трек | Старт | Длительность | Начальный сектор | Конечный сектор
---------------------------------------------------------------------
1 | 0:00.00 | 3:03.35 | 0 | 13759
2 | 3:03.35 | 3:02.50 | 13760 | 27459
3 | 6:06.10 | 3:58.30 | 27460 | 45339
4 | 10:04.40 | 4:03.45 | 45340 | 63609
5 | 14:08.10 | 3:47.12 | 63610 | 80646
6 | 17:55.22 | 3:15.55 | 80647 | 95326
7 | 21:11.02 | 3:29.30 | 95327 | 111031
8 | 24:40.32 | 2:32.45 | 111032 | 122476
9 | 27:13.02 | 2:39.03 | 122477 | 134404
10 | 29:52.05 | 2:31.30 | 134405 | 145759
11 | 32:23.35 | 4:04.65 | 145760 | 164124
12 | 36:28.25 | 4:00.52 | 164125 | 182176
13 | 40:29.02 | 3:18.65 | 182177 | 197091
Характеристики диапазона извлечения и сообщения об ошибках
Выбранный диапазон
Имя файла K:\Kenny G - Miracles The Holiday Album (1994)\Kenny G - Miracles.wav
Пиковый уровень 100.0 %
Качество диапазона 100.0 %
CRC копии 70FF7BBB
Копирование... OK
Ошибок не произошло
AccurateRip: сводка
Трек 1 нет в базе данных
Трек 2 нет в базе данных
Трек 3 нет в базе данных
Трек 4 нет в базе данных
Трек 5 нет в базе данных
Трек 6 нет в базе данных
Трек 7 нет в базе данных
Трек 8 нет в базе данных
Трек 9 нет в базе данных
Трек 10 нет в базе данных
Трек 11 нет в базе данных
Трек 12 нет в базе данных
Трек 13 нет в базе данных
Ни одного трека нет в базе AccurateRip
Конец отчёта
Приватный:
Нет (DHT включён)
Размер:
243.96 Мб (255,809,455 байт) » файлов: 11
Участники:
0 раздают, 0 качают (0 участников всего)
Внешние участники:
2 раздают, 1 качают (3 участников всего) [ Обновить ]
12:32
5
Нет комментариев. Ваш будет первым!