Поиск

(Jazz) Kenny Barron & Trio da Paz - Canta Brasil - 2002, APE (image + .cue), lossless

(Jazz) Kenny Barron & Trio da Paz - Canta Brasil - 2002, APE (image + .cue), lossless
Треклист:
Kenny Barron & Trio da Paz - Canta Brasil Страна: USA
Жанр: Jazz
Год выпуска: 2002
Формат: APE (image + .cue)
Битрейт аудио: lossless
Продолжительность: 58:19
Трэклист:
1. Zumbi (9:15)
2. Clouds (10:09)
3. Paraty (7:27)
4. Until Then (7:11)
5. Bachiao (7:31)
6. Thoughts and Dreams (4:26)
7. Dona Maria (6:20)
8. This One (5:56)
Состав:
Nilson Matta - Bass
Maucha Adnet - Vocals
Anne Drummond - Flute
Kenny Barron - Piano
Duduka Da Fonseca - Drums
Romero Lubambo - Guitar
 
Рецензия ЕЖ
Кенни Бэррону 9 июня исполнилось 65 лет, но поклонники джаза убеждены, что он гораздо старше. Дело в том, что, когда в середине 50-х он пришел в ритм-энд-блюзовое «комбо» (так тогда называли любой ансамбль современной музыки) Мела Мелвина, ему было всего двенадцать лет. По закону в США несовершеннолетним разрешается работать по вечерам лишь в исключительных случаях, да и то с разрешения и под присмотром родителей. Присматривать за юным пианистом Бэрроном поручили его старшему брату саксофонисту Биллу, которому в то время было уже под тридцать.
Теперь среди классиков современного джаза трудно найти того, кому хотя бы однажды не аккомпанировал пианист Кенни Бэррон. С начала 70-х Кенни Бэррон стал выступать как солист и руководитель собственных проектов (некоторые из них удостоены «Грэмми») и получил должность профессора в престижном университете Rutgers.
С конца сентября 2002 г. Бэррон раскручивает альбом Canta Brasil, который записал вместе с бразильским Trio da Paz. Критики, однако, встретили эту работу молчанием. Похоже, им показалось, что мэтр пошел на поводу у всеобщей моды на латиноамериканские ритмы. При этом почему-то никто не вспомнил, что еще до того, как увлечение Кубой и Бразилией приняло повальный характер, Бэррон долгие годы работал с саксофонистом Стэном Гетцем, одним из создателей босановы — жанра, основанного на бразильской самбе. Играл со скрипачкой Реджиной Картер музыку лидера Trio da Paz — гитариста Ромеро Любамбо.
Иных, возможно, настораживает, что практически все вещи на диске Canta Brasil сочинены самим Бэрроном. С джазовой точки зрения им определенно не хватает контраста и разнообразия. Может быть, дело в том, что из всех музыкантов импровизируют только двое — Бэррон и Любамбо. Но все равно – такой высококачественной и стопроцентно акустической легкой музыки в наши дни гораздо меньше, чем хотелось бы всем, кто хоть однажды слышал музыку не из репродуктора.
 
Log EAC
Exact Audio Copy V0.99 prebeta 4 from 23. January 2008
EAC extraction logfile from 17. June 2008, 10:28
Kenny Barron / Canta Brasil
Used drive : Optiarc DVD RW AD-5200A Adapter: 1 ID: 0
Read mode : Secure
Utilize accurate stream : Yes
Defeat audio cache : Yes
Make use of C2 pointers : No
Read offset correction : 48
Overread into Lead-In and Lead-Out : No
Fill up missing offset samples with silence : Yes
Delete leading and trailing silent blocks : No
Null samples used in CRC calculations : No
Used interface : Native Win32 interface for Win NT & 2000
Used output format : Internal WAV Routines
Sample format : 44.100 Hz; 16 Bit; Stereo
TOC of the extracted CD
Track | Start | Length | Start sector | End sector
---------------------------------------------------------
1 | 0:00.00 | 9:15.07 | 0 | 41631
2 | 9:15.07 | 10:09.32 | 41632 | 87338
3 | 19:24.39 | 7:27.54 | 87339 | 120917
4 | 26:52.18 | 7:11.17 | 120918 | 153259
5 | 34:03.35 | 7:31.15 | 153260 | 187099
6 | 41:34.50 | 4:26.52 | 187100 | 207101
7 | 46:01.27 | 6:20.47 | 207102 | 235648
8 | 52:21.74 | 5:56.60 | 235649 | 262408
Range status and errors
Selected range
Filename D:\TEMP\Музыка\Торренты\Kenny Barron - (2002) Canta Brasil\Kenny Barron - Canta Brasil.wav
Peak level 99.8 %
Range quality 100.0 %
Copy CRC 3E5C8BED
Copy OK
No errors occurred
End of status report
 
Tau
3371733033 617218940 CDImage.wav
auCDtect: CD records authenticity detector, version 0.8.2
Copyright (c) 2004 Oleg Berngardt. All rights reserved.
Copyright (c) 2004 Alexander Djourik. All rights reserved.
------------------------------------------------------------
Processing file: [CDImage.wav]
------------------------------------------------------------
This track looks like CDDA with probability 100%
------------------------------------------------------------
Final Conclusion:
------------------------------------------------------------
These tracks looks like CDDA with probability 100%
Приятных впечатлений!
02:38
553
Нет комментариев. Ваш будет первым!