Вы используете незарегистрированную версию компонента "Вкладки"!

Поиск

(Jazz) John Coltrane Quartet - Coast To Coast - 1965, FLAC (tracks+.cue), lossless

Треклист:
John Coltrane Quartet / Coast To Coast
Жанр: Free Jazz
Страна-производитель диска: Russia
Год издания: 1965
Страна исполнителя (группы): USA
Аудиокодек: FLAC (*.flac)
Тип рипа: tracks+.cue
Битрейт аудио: lossless
Продолжительность: 0:44:29.
Источник (релизер): clustert
Наличие сканов в содержимом раздачи: да
Треклист:
01. Alabama [0:06:20.05]
02. Impressions [0:14:29.38]
03. Creation [0:23:40.00]
 
Лог создания рипа
Exact Audio Copy V1.0 beta 3 from 29. August 2011
Отчёт EAC об извлечении, выполненном 17. ноября 2014, 4:49
John Coltrane Quartet / Coast To Coast
Дисковод: ASUS DRW-1814BLT Adapter: 4 ID: 0
Режим чтения : Достоверность
Использование точного потока : Да
Отключение кэша аудио : Да
Использование указателей C2 : Нет
Коррекция смещения при чтении : 6
Способность читать области Lead-in и Lead-out : Нет
Заполнение пропущенных сэмплов тишиной : Да
Удаление блоков с тишиной в начале и конце : Нет
При вычислениях CRC использовались нулевые сэмплы : Да
Интерфейс : Встроенный Win32-интерфейс для Win NT/2000
Обработка зазоров : Добавлено к предыдущему треку
Выходной формат : Пользовательский кодировщик
Выбранный битрейт : 128 kBit/s
Качество : Высокий
Добавление ID3-тега : Нет
Утилита сжатия : C:\Program Files\Exact Audio Copy\Flac\flac.exe
Дополнительные параметры : -V -8 -T "Genre=%genre%" -T "Artist=%artist%" -T "Title=%title%" -T "Album=%albumtitle%" -T "Date=%year%" -T "Tracknumber=%tracknr%" -T "Comment=EAC1.0b2 FLAC -8" %source%
TOC извлечённого CD
Трек | Старт | Длительность | Начальный сектор | Конечный сектор
---------------------------------------------------------------------
1 | 0:00.00 | 6:20.05 | 0 | 28504
2 | 6:20.05 | 14:29.38 | 28505 | 93717
3 | 20:49.43 | 23:40.00 | 93718 | 200217
Трек 1
Имя файла R:\Раздача 28\John Coltrane Quartet - 1965 - Coast To Coast\01 Alabama.wav
Длина предзазора 0:00:02.00
Пиковый уровень 98.6 %
Скорость извлечения 2.8 X
Качество трека 100.0 %
CRC теста 4B939678
CRC копии 4B939678
Точное извлечение (достоверность 1) [6528AAAC] (AR v2)
Копирование... OK
Трек 2
Имя файла R:\Раздача 28\John Coltrane Quartet - 1965 - Coast To Coast\02 Impressions.wav
Пиковый уровень 83.3 %
Скорость извлечения 2.4 X
Качество трека 99.9 %
CRC теста 053B9F9A
CRC копии 053B9F9A
Точное извлечение (достоверность 1) [7345E66D] (AR v2)
Копирование... OK
Трек 3
Имя файла R:\Раздача 28\John Coltrane Quartet - 1965 - Coast To Coast\03 Creation.wav
Пиковый уровень 100.0 %
Скорость извлечения 3.2 X
Качество трека 99.9 %
CRC теста 41F0D452
CRC копии 41F0D452
Точное извлечение (достоверность 1) [EE84656D] (AR v2)
Копирование... OK
Все треки извлечены точно
Ошибок не произошло
Конец отчёта
==== Контрольная сумма отчёта 346F905B47EAB1454B3561DB9D5A9D4324BE363B53640B15F7940EB3FDAC94F5 ====
 
Содержание индексной карты (.CUE)
REM GENRE Jazz
REM DATE 1965
REM DISCID 180A6D03
REM COMMENT "ExactAudioCopy v1.0b3"
PERFORMER "John Coltrane Quartet"
TITLE "Coast To Coast"
FILE "01 Alabama.wav" WAVE
TRACK 01 AUDIO
TITLE "Alabama"
PERFORMER "John Coltrane Quartet"
INDEX 01 00:00:00
FILE "02 Impressions.wav" WAVE
TRACK 02 AUDIO
TITLE "Impressions"
PERFORMER "John Coltrane Quartet"
INDEX 01 00:00:00
FILE "03 Creation.wav" WAVE
TRACK 03 AUDIO
TITLE "Creation"
PERFORMER "John Coltrane Quartet"
INDEX 01 00:00:00
По всем вопросам пишите личное сообщение пользователю M0p94ok.
06:15
168
Нет комментариев. Ваш будет первым!