Поиск

(Jazz) Joe Pass And Red Mitchell - Finally - 1992, FLAC (tracks)

(Jazz) Joe Pass And Red Mitchell - Finally - 1992, FLAC (tracks)
Треклист:
Joe Pass And Red Mitchell - Finally
Жанр: Jazz
Год выпуска диска: 1992
Производитель диска: Japan
Аудио кодек: FLAC
Тип рипа: tracks
Продолжительность: 62:19
Трэклист:
01. THE SHADOW OF YOUR SMILE (J.Mandel) 6:11
02. HAVE YOU MET MISS JONES (R.Rodgers) 5:38
03. I THOUGHT ABOUT YOU (J.Van Heusen) 7:25
04. DOXY (S.Rollins) 5:28
05. ALL THE THINGS YOU ARE (J.Kern) 5:03
06. THESE FOOLISH THINGS (Strachey-Marvell-Link) 8:40
07. BLUE MOON (R.Rodgers) 5:46
08. FOR DJANGO -Joe’s solo (J.Pass) 3:33
09. FINALLY (R.Mitchell) 5:15
10. PENNIES FROM HEAVEN (A.Johnston) 3:03
11. SOFTLY AS IN A MORNING SUNRISE (S.Romberg) 6:15
Доп. информация:
JOE PASS- guitar
RED MITCHELL- bass, vocal (9)
Recorded on February 15th 1992, at club 'FASCHING' in Stockholm, Sweden
 
Отчёт EAC
Exact Audio Copy V0.99 prebeta 4 from 23. January 2008
EAC extraction logfile from 8. September 2008, 20:39
Joe Pass with Red Mitchell / Finally - Live In Stockholm
Used drive : PLEXTOR CD-R PREMIUM2 Adapter: 1 ID: 1
Read mode : Secure
Utilize accurate stream : Yes
Defeat audio cache : Yes
Make use of C2 pointers : No
Read offset correction : 30
Overread into Lead-In and Lead-Out : No
Fill up missing offset samples with silence : Yes
Delete leading and trailing silent blocks : No
Null samples used in CRC calculations : Yes
Used interface : Installed external ASPI interface
Gap handling : Appended to previous track
Used output format : User Defined Encoder
Selected bitrate : 768 kBit/s
Quality : High
Add ID3 tag : No
Command line compressor : C:\Program Files\Exact Audio Copy\FLAC\FLAC.EXE
Additional command line options : -8 -V -T "ARTIST=%a" -T "TITLE=%t" -T "ALBUM=%g" -T "DATE=%y" -T "TRACKNUMBER=%n" -T "GENRE=%m" -T "COMMENT=EAC FLAC -8" %s
TOC of the extracted CD
Track | Start | Length | Start sector | End sector
---------------------------------------------------------
1 | 0:00.45 | 6:10.50 | 45 | 27844
2 | 6:11.20 | 5:38.25 | 27845 | 53219
3 | 11:49.45 | 7:25.00 | 53220 | 86594
4 | 19:14.45 | 5:28.13 | 86595 | 111207
5 | 24:42.58 | 5:02.50 | 111208 | 133907
6 | 29:45.33 | 8:40.00 | 133908 | 172907
7 | 38:25.33 | 5:45.62 | 172908 | 198844
8 | 44:11.20 | 3:32.63 | 198845 | 214807
9 | 47:44.08 | 5:13.00 | 214808 | 238282
10 | 52:57.08 | 3:01.20 | 238283 | 251877
11 | 55:58.28 | 6:21.55 | 251878 | 280507
Track 1
Filename D:\Jazz\Joe Pass with Red Mitchell - Finally (1992) [FLAC]\01 - The Shadow Of Your Smile.wav
Pre-gap length 0:00:02.45
Peak level 64.1 %
Track quality 100.0 %
Test CRC 4DB1B58F
Copy CRC 4DB1B58F
Track not present in AccurateRip database
Copy OK
Track 2
Filename D:\Jazz\Joe Pass with Red Mitchell - Finally (1992) [FLAC]\02 - Have You Met Ms. Jones.wav
Peak level 72.3 %
Track quality 100.0 %
Test CRC 06EC590F
Copy CRC 06EC590F
Track not present in AccurateRip database
Copy OK
Track 3
Filename D:\Jazz\Joe Pass with Red Mitchell - Finally (1992) [FLAC]\03 - I Thought About You.wav
Peak level 63.1 %
Track quality 100.0 %
Test CRC 91BA1C2D
Copy CRC 91BA1C2D
Track not present in AccurateRip database
Copy OK
Track 4
Filename D:\Jazz\Joe Pass with Red Mitchell - Finally (1992) [FLAC]\04 - Doxy.wav
Peak level 86.7 %
Track quality 100.0 %
Test CRC 734FAE59
Copy CRC 734FAE59
Track not present in AccurateRip database
Copy OK
Track 5
Filename D:\Jazz\Joe Pass with Red Mitchell - Finally (1992) [FLAC]\05 - All The Things You Are.wav
Peak level 83.9 %
Track quality 100.0 %
Test CRC 82CE23CD
Copy CRC 82CE23CD
Track not present in AccurateRip database
Copy OK
Track 6
Filename D:\Jazz\Joe Pass with Red Mitchell - Finally (1992) [FLAC]\06 - These Foolish Things.wav
Peak level 57.9 %
Track quality 99.9 %
Test CRC 3162C2A7
Copy CRC 3162C2A7
Track not present in AccurateRip database
Copy OK
Track 7
Filename D:\Jazz\Joe Pass with Red Mitchell - Finally (1992) [FLAC]\07 - Blue Moon.wav
Peak level 79.1 %
Track quality 100.0 %
Test CRC 0085605B
Copy CRC 0085605B
Track not present in AccurateRip database
Copy OK
Track 8
Filename D:\Jazz\Joe Pass with Red Mitchell - Finally (1992) [FLAC]\08 - For Django.wav
Peak level 36.3 %
Track quality 99.9 %
Test CRC 0AF15474
Copy CRC 0AF15474
Track not present in AccurateRip database
Copy OK
Track 9
Filename D:\Jazz\Joe Pass with Red Mitchell - Finally (1992) [FLAC]\09 - Finally.wav
Peak level 56.1 %
Track quality 100.0 %
Test CRC CE9E3CA1
Copy CRC CE9E3CA1
Track not present in AccurateRip database
Copy OK
Track 10
Filename D:\Jazz\Joe Pass with Red Mitchell - Finally (1992) [FLAC]\10 - Pennies From Heaven.wav
Peak level 37.2 %
Track quality 100.0 %
Test CRC 5DE1A654
Copy CRC 5DE1A654
Track not present in AccurateRip database
Copy OK
Track 11
Filename D:\Jazz\Joe Pass with Red Mitchell - Finally (1992) [FLAC]\11 - Softly As In A Morning Sunrise.wav
Peak level 84.4 %
Track quality 100.0 %
Test CRC 3166865C
Copy CRC 3166865C
Track not present in AccurateRip database
Copy OK
None of the tracks are present in the AccurateRip database
No errors occurred
End of status report
Взято из сети, присутствует полный комплект сканов.
Download available for power users only.
02:50
331
04:10
2-track дефект CRC