Поиск

(Jazz, Jewish Music, Avant-Garde) Daniel Zamir - Missing Here - 2010, FLAC (tracks+.cue) lossless

Треклист:
Daniel Zamir / Missing Here
Жанр: Jazz, Jewish Music, Avant-Garde
Страна-производитель диска: Israel
Год издания диска: 2010
Издатель (лейбл): HaTav HaShmini
Номер по каталогу: DZGLHH910
Страна: Israel
Аудио кодек: FLAC (*.flac)
Тип рипа: tracks+.cue
Битрейт аудио: lossless
Продолжительность: 01:05:17
Источник (релизер): Мой рип
Наличие сканов в содержимом раздачи: да
Треклист:
1. Poem 33 (6:06)
2. Poem 54 (5:19)
3. Letter He (7:14)
4. Scent of an Apple Redness of Red (4:39)
5. Poem 42 (4:33)
6. Poem 51 (9:48)
7. Eleven (Question Mark) (6:29)
8. Poem 47 (Duet) (4:22)
9. 7 Measurements (6:22)
10. Love (7:18)
11. Missing Here (3:07)
 
Лог создания рипа
Exact Audio Copy V1.0 beta 3 from 29. August 2011
EAC extraction logfile from 13. April 2012, 18:58
Daniel Zamir / Missing Here
Used drive : TSSTcorpCD/DVDW SH-S182D Adapter: 0 ID: 0
Read mode : Secure
Utilize accurate stream : Yes
Defeat audio cache : Yes
Make use of C2 pointers : No
Read offset correction : 6
Overread into Lead-In and Lead-Out : No
Fill up missing offset samples with silence : Yes
Delete leading and trailing silent blocks : No
Null samples used in CRC calculations : Yes
Used interface : Native Win32 interface for Win NT & 2000
Gap handling : Appended to previous track
Used output format : User Defined Encoder
Selected bitrate : 1024 kBit/s
Quality : High
Add ID3 tag : No
Command line compressor : C:\Program Files\Exact Audio Copy\Flac\flac.exe
Additional command line options : -8 -V -T "ARTIST=%artist%" -T "TITLE=%title%" -T "ALBUM=%albumtitle%" -T "DATE=%year%" -T "TRACKNUMBER=%tracknr%" -T "GENRE=%genre%" -T "PERFORMER=%albuminterpret%" -T "COMPOSER=%composer%" %haslyrics%--tag-from-file=LYRICS="%lyricsfile%"%haslyrics% -T "ALBUMARTIST=%albumartist%" -T "ALBUM ARTIST=%albumartist%" -T "DISCNUMBER=%cdnumber%" -T "TOTALDISCS=%totalcds%" -T "TOTALTRACKS=%numtracks%" -T "COMMENT=%comment%" %source% -o %dest%
TOC of the extracted CD
Track | Start | Length | Start sector | End sector
---------------------------------------------------------
1 | 0:00.00 | 6:06.30 | 0 | 27479
2 | 6:06.30 | 5:19.25 | 27480 | 51429
3 | 11:25.55 | 7:14.67 | 51430 | 84046
4 | 18:40.47 | 4:39.59 | 84047 | 105030
5 | 23:20.31 | 4:33.10 | 105031 | 125515
6 | 27:53.41 | 9:48.45 | 125516 | 169660
7 | 37:42.11 | 6:29.67 | 169661 | 198902
8 | 44:12.03 | 4:22.45 | 198903 | 218597
9 | 48:34.48 | 6:22.49 | 218598 | 247296
10 | 54:57.22 | 7:18.01 | 247297 | 280147
11 | 62:15.23 | 3:07.37 | 280148 | 294209
Track 1
Filename D:\Ripped by Vasiliska\01 Poem 33.wav
Pre-gap length 0:00:02.00
Peak level 99.0 %
Extraction speed 4.5 X
Track quality 100.0 %
Test CRC 0E066D93
Copy CRC 0E066D93
Accurately ripped (confidence 1) [EECB3E26] (AR v1)
Copy OK
Track 2
Filename D:\Ripped by Vasiliska\02 Poem 54.wav
Peak level 99.1 %
Extraction speed 4.6 X
Track quality 99.9 %
Test CRC 55E5CC2D
Copy CRC 55E5CC2D
Accurately ripped (confidence 1) [A0BDCBE8] (AR v1)
Copy OK
Track 3
Filename D:\Ripped by Vasiliska\03 Lletter H.wav
Peak level 99.3 %
Extraction speed 5.4 X
Track quality 99.9 %
Test CRC 0DFD5D1A
Copy CRC 0DFD5D1A
Accurately ripped (confidence 1) [6CC57FDB] (AR v1)
Copy OK
Track 4
Filename D:\Ripped by Vasiliska\04 Scent of an Apple Redness of Red.wav
Peak level 99.5 %
Extraction speed 6.0 X
Track quality 100.0 %
Test CRC 769768CF
Copy CRC 769768CF
Accurately ripped (confidence 1) [940BD0F2] (AR v1)
Copy OK
Track 5
Filename D:\Ripped by Vasiliska\05 Poem 42.wav
Peak level 98.8 %
Extraction speed 6.3 X
Track quality 100.0 %
Test CRC 725878BC
Copy CRC 725878BC
Accurately ripped (confidence 1) [6AA59DC0] (AR v1)
Copy OK
Track 6
Filename D:\Ripped by Vasiliska\06 Poem 51.wav
Peak level 99.6 %
Extraction speed 6.9 X
Track quality 99.9 %
Test CRC 083D209D
Copy CRC 083D209D
Accurately ripped (confidence 1) [40C964BB] (AR v1)
Copy OK
Track 7
Filename D:\Ripped by Vasiliska\07 Eleven (Question Mark).wav
Peak level 98.8 %
Extraction speed 7.6 X
Track quality 100.0 %
Test CRC EA2C8238
Copy CRC EA2C8238
Accurately ripped (confidence 1) [D6BE747C] (AR v1)
Copy OK
Track 8
Filename D:\Ripped by Vasiliska\08 Poem 47 (duet).wav
Peak level 73.9 %
Extraction speed 6.7 X
Track quality 99.9 %
Test CRC 02E5858B
Copy CRC 02E5858B
Accurately ripped (confidence 1) [A0DECFB6] (AR v1)
Copy OK
Track 9
Filename D:\Ripped by Vasiliska\09 7 Measurements.wav
Peak level 98.9 %
Extraction speed 8.2 X
Track quality 100.0 %
Test CRC 4ABA9D4D
Copy CRC 4ABA9D4D
Accurately ripped (confidence 1) [3CB64D8A] (AR v1)
Copy OK
Track 10
Filename D:\Ripped by Vasiliska\10 Love.wav
Peak level 98.9 %
Extraction speed 8.7 X
Track quality 100.0 %
Test CRC 6370A380
Copy CRC 6370A380
Accurately ripped (confidence 1) [941B96E0] (AR v1)
Copy OK
Track 11
Filename D:\Ripped by Vasiliska\11 Missing Here.wav
Peak level 98.8 %
Extraction speed 8.0 X
Track quality 100.0 %
Test CRC 0D574B5D
Copy CRC 0D574B5D
Accurately ripped (confidence 1) [4448B009] (AR v1)
Copy OK
All tracks accurately ripped
No errors occurred
End of status report
---- CUETools DB Plugin V2.1.3
[CTDB TOCID: shSOmYcZ9GhK6re7cvFAUJhJ7mw-] disk not present in database, Submit result: shSOmYcZ9GhK6re7cvFAUJhJ7mw- has been uploaded
==== Log checksum 834320AA7E650119228F12C13461BC2C28814B1F7E6F102C749F0927B298FC5B ====
 
Содержание индексной карты (.CUE)
REM GENRE Jazz
REM DATE 2010
REM DISCID A40F520B
REM COMMENT "ExactAudioCopy v1.0b3"
PERFORMER "Daniel Zamir"
TITLE "Missing Here"
FILE "01 Poem 33.wav" WAVE
TRACK 01 AUDIO
TITLE "Poem 33"
PERFORMER "Daniel Zamir"
ISRC @L4161000250
INDEX 01 00:00:00
FILE "02 Poem 54.wav" WAVE
TRACK 02 AUDIO
TITLE "Poem 54"
PERFORMER "Daniel Zamir"
ISRC @L4161000251
INDEX 01 00:00:00
FILE "03 Lletter H.wav" WAVE
TRACK 03 AUDIO
TITLE "Lletter H"
PERFORMER "Daniel Zamir"
ISRC @L4161000252
INDEX 01 00:00:00
FILE "04 Scent of an Apple Redness of Red.wav" WAVE
TRACK 04 AUDIO
TITLE "Scent of an Apple Redness of Red"
PERFORMER "Daniel Zamir"
ISRC @L4161000253
INDEX 01 00:00:00
FILE "05 Poem 42.wav" WAVE
TRACK 05 AUDIO
TITLE "Poem 42"
PERFORMER "Daniel Zamir"
ISRC @L4161000254
INDEX 01 00:00:00
FILE "06 Poem 51.wav" WAVE
TRACK 06 AUDIO
TITLE "Poem 51"
PERFORMER "Daniel Zamir"
ISRC @L4161000255
INDEX 01 00:00:00
FILE "07 Eleven (Question Mark).wav" WAVE
TRACK 07 AUDIO
TITLE "Eleven (Question Mark)"
PERFORMER "Daniel Zamir"
ISRC @L4161000256
INDEX 01 00:00:00
FILE "08 Poem 47 (duet).wav" WAVE
TRACK 08 AUDIO
TITLE "Poem 47 (duet)"
PERFORMER "Daniel Zamir"
ISRC @L4161000257
INDEX 01 00:00:00
FILE "09 7 Measurements.wav" WAVE
TRACK 09 AUDIO
TITLE "7 Measurements"
PERFORMER "Daniel Zamir"
ISRC @L4161000258
INDEX 01 00:00:00
FILE "10 Love.wav" WAVE
TRACK 10 AUDIO
TITLE "Love"
PERFORMER "Daniel Zamir"
ISRC @L4161000259
INDEX 01 00:00:00
FILE "11 Missing Here.wav" WAVE
TRACK 11 AUDIO
TITLE "Missing Here"
PERFORMER "Daniel Zamir"
ISRC @L4161000260
INDEX 01 00:00:00
 
Состав
Daniel Zamir - Soprano Saxophone
Omer Avital - Acoustic Bass
Omer Klein - Piano
Aviv Cohen - Drums
Itamar Borochov - Trumpet
Avi Leibovitch - Trombone
Speshial Guest:
Eviatar Banai
Новый рип + добавлены сканы
17:38
331
Нет комментариев. Ваш будет первым!