Вы используете незарегистрированную версию компонента "Вкладки"!

Поиск

(Jazz)(jazz, avant-garde, free jazz) Peter Brotzmann - Live At Nefertiti (1999) [2001]{ayler records}, FLAC (tracks+.cue), lossless

(Jazz)(jazz, avant-garde, free jazz) Peter Brotzmann - Live At Nefertiti (1999) [2001]{ayler records}, FLAC (tracks+.cue), lossless
Треклист:


Peter Brotzmann - Live At Nefertiti

Жанр: jazz, avant-garde, free jazz
Год выпуска: 2001
Формат: FLAC (tracks+.cue)
Битрейт аудио: lossless
Продолжительность
Источник: ed2k



Peter Brotzmann
Live At Nefertiti
Peter Brotzmann (tenor saxophone, tarogato, clarinet)
Peter Friis Nielsen (electric bass)
Peeter Uuskyla (drums)
recorded March 13, 1999
Nefertiti Jazz Club, Gothenburg, Sweden
released 2001
ayler records
aylCD-004


tracks

1. (00:07:42) Nidhog 1
2. (00:08:26) Nidhog 2
3. (00:20:31) Thrid Sun
4. (00:11:38) Nidhog 3
5. (00:09:30) Off Sight
6. (00:13:35) Nidhog 4


 
logfile
Exact Audio Copy V0.99 prebeta 4 from 23. January 2008
EAC extraction logfile from 27. September 2008, 7:50
Peter Broetzmann / Live At Nefertiti
Used drive : PLEXTOR CD-R PREMIUM2 Adapter: 3 ID: 0
Read mode : Secure
Utilize accurate stream : Yes
Defeat audio cache : Yes
Make use of C2 pointers : No
Read offset correction : 30
Overread into Lead-In and Lead-Out : Yes
Fill up missing offset samples with silence : Yes
Delete leading and trailing silent blocks : No
Null samples used in CRC calculations : Yes
Used interface : Native Win32 interface for Win NT & 2000
Gap handling : Appended to previous track
Used output format : User Defined Encoder
Selected bitrate : 128 kBit/s
Quality : High
Add ID3 tag : No
Command line compressor : D:\Programme\FLAC\flac.exe
Additional command line options : -5 -V -T "artist=%a" -T "title=%t" -T "album=%g" -T "date=%y" -T "tracknumber=%n" -T "genre=%m" -T "comment=Exact Audio Copy 0.99pb4, Flac 1.2.1.b -5" %s
TOC of the extracted CD
Track | Start | Length | Start sector | End sector
---------------------------------------------------------
1 | 0:00.00 | 7:42.07 | 0 | 34656
2 | 7:42.07 | 8:26.18 | 34657 | 72624
3 | 16:08.25 | 20:31.10 | 72625 | 164959
4 | 36:39.35 | 11:38.12 | 164960 | 217321
5 | 48:17.47 | 9:29.52 | 217322 | 260048
6 | 57:47.24 | 13:34.56 | 260049 | 321154
Track 1
Filename E:\Peter Broetzmann - Live at Nefertiti (2001) [FLAC] {ayler records aylcd-004}\01 - Nidhog 1.wav
Pre-gap length 0:00:02.00
Peak level 100.0 %
Track quality 100.0 %
Test CRC 16AA1C79
Copy CRC 16AA1C79
Track not present in AccurateRip database
Copy OK
Track 2
Filename E:\Peter Broetzmann - Live at Nefertiti (2001) [FLAC] {ayler records aylcd-004}\02 - Nidhog 2.wav
Pre-gap length 0:00:02.00
Peak level 98.9 %
Track quality 100.0 %
Test CRC 6F471CFE
Copy CRC 6F471CFE
Track not present in AccurateRip database
Copy OK
Track 3
Filename E:\Peter Broetzmann - Live at Nefertiti (2001) [FLAC] {ayler records aylcd-004}\03 - Thrid Sun.wav
Pre-gap length 0:00:02.00
Peak level 100.0 %
Track quality 100.0 %
Test CRC 92CE9E5C
Copy CRC 92CE9E5C
Track not present in AccurateRip database
Copy OK
Track 4
Filename E:\Peter Broetzmann - Live at Nefertiti (2001) [FLAC] {ayler records aylcd-004}\04 - Nidhog 3.wav
Pre-gap length 0:00:02.00
Peak level 100.0 %
Track quality 100.0 %
Test CRC 57176A63
Copy CRC 57176A63
Track not present in AccurateRip database
Copy OK
Track 5
Filename E:\Peter Broetzmann - Live at Nefertiti (2001) [FLAC] {ayler records aylcd-004}\05 - Off Sight.wav
Pre-gap length 0:00:02.00
Peak level 100.0 %
Track quality 100.0 %
Test CRC 23259401
Copy CRC 23259401
Track not present in AccurateRip database
Copy OK
Track 6
Filename E:\Peter Broetzmann - Live at Nefertiti (2001) [FLAC] {ayler records aylcd-004}\06 - Nidhog 4.wav
Pre-gap length 0:00:02.00
Peak level 100.0 %
Track quality 100.0 %
Test CRC 0A50E251
Copy CRC 0A50E251
Track not present in AccurateRip database
Copy OK
None of the tracks are present in the AccurateRip database
No errors occurred
End of status report

другие релизы
По всем вопросам пишите личное сообщение пользователю M0p94ok.
12:25
164
Нет комментариев. Ваш будет первым!