Поиск

(Jazz) James Carter - Present Tense (2008) [FLAC] - 2008, FLAC (tracks + .cue), lossless

(Jazz) James Carter - Present Tense (2008) [FLAC] - 2008, FLAC (tracks + .cue), lossless
Треклист:
James Carter - Present Tense (2008) [FLAC]
Жанр: Jazz
Год выпуска: 2008
Формат: FLAC (tracks + .cue)
Битрейт аудио: lossless
Продолжительность: 01:03:23
Трэклист:
1. James Carter - Rapid Shave (7:31)
2. James Carter - Bro. Dolphy (7:15)
3. James Carter - Pour Que Ma Vie Demeure (5:09)
4. James Carter - Sussa Nita (6:06)
5. James Carter - Song Of Delilah (5:12)
6. James Carter - Dodo's Bounce (6:06)
7. James Carter - Shadowy Sands (8:32)
8. James Carter - Hymn Of The Orient (4:27)
9. James Carter - Bossa J.C. (4:46)
10. James Carter - Tenderly (8:19)
Доп. информация:
 
Отчёт EAC
Exact Audio Copy V0.99 prebeta 4 from 23. January 2008
EAC extraction logfile from 8. May 2008, 20:39
James Carter / Present Tense
Used drive : PLEXTOR CD-R PREMIUM2 Adapter: 0 ID: 1
Read mode : Secure
Utilize accurate stream : Yes
Defeat audio cache : Yes
Make use of C2 pointers : No
Read offset correction : 30
Overread into Lead-In and Lead-Out : Yes
Fill up missing offset samples with silence : Yes
Delete leading and trailing silent blocks : No
Null samples used in CRC calculations : Yes
Used interface : Installed external ASPI interface
Gap handling : Appended to previous track
Used output format : User Defined Encoder
Selected bitrate : 128 kBit/s
Quality : High
Add ID3 tag : No
Command line compressor : C:\Programme\FLAC\flac.exe
Additional command line options : -5 -V -T "artist=%a" -T "title=%t" -T "album=%g" -T "date=%y" -T "tracknumber=%n" -T "genre=%m" -T "comment=Exact Audio Copy 0.99pb4, Flac 1.2.1.b -5" %s
TOC of the extracted CD
Track | Start | Length | Start sector | End sector
---------------------------------------------------------
1 | 0:00.00 | 7:31.39 | 0 | 33863
2 | 7:31.39 | 7:15.35 | 33864 | 66523
3 | 14:46.74 | 5:08.53 | 66524 | 89676
4 | 19:55.52 | 6:05.47 | 89677 | 117098
5 | 26:01.24 | 5:12.24 | 117099 | 140522
6 | 31:13.48 | 6:05.73 | 140523 | 167970
7 | 37:19.46 | 8:31.45 | 167971 | 206340
8 | 45:51.16 | 4:26.69 | 206341 | 226359
9 | 50:18.10 | 4:45.46 | 226360 | 247780
10 | 55:03.56 | 8:18.61 | 247781 | 285191
Track 1
Filename C:\James Carter - Present Tense (2008) [FLAC]\01 - Rapid Shave.wav
Pre-gap length 0:00:02.00
Peak level 99.9 %
Track quality 100.0 %
Test CRC 2248B3E7
Copy CRC 2248B3E7
Track not present in AccurateRip database
Copy OK
Track 2
Filename C:\James Carter - Present Tense (2008) [FLAC]\02 - Bro. Dolphy.wav
Peak level 100.0 %
Track quality 100.0 %
Test CRC 53B49057
Copy CRC 53B49057
Track not present in AccurateRip database
Copy OK
Track 3
Filename C:\James Carter - Present Tense (2008) [FLAC]\03 - Pour Que Ma Vie Demeure.wav
Peak level 99.8 %
Track quality 100.0 %
Test CRC A39EFD26
Copy CRC A39EFD26
Track not present in AccurateRip database
Copy OK
Track 4
Filename C:\James Carter - Present Tense (2008) [FLAC]\04 - Sussa Nita.wav
Peak level 99.8 %
Track quality 100.0 %
Test CRC D6CB326C
Copy CRC D6CB326C
Track not present in AccurateRip database
Copy OK
Track 5
Filename C:\James Carter - Present Tense (2008) [FLAC]\05 - Song Of Delilah.wav
Peak level 100.0 %
Track quality 100.0 %
Test CRC 8E6FA603
Copy CRC 8E6FA603
Track not present in AccurateRip database
Copy OK
Track 6
Filename C:\James Carter - Present Tense (2008) [FLAC]\06 - Dodo's Bounce.wav
Peak level 75.2 %
Track quality 100.0 %
Test CRC 44FF9639
Copy CRC 44FF9639
Track not present in AccurateRip database
Copy OK
Track 7
Filename C:\James Carter - Present Tense (2008) [FLAC]\07 - Shadowy Sands.wav
Peak level 75.3 %
Track quality 100.0 %
Test CRC A07D2A05
Copy CRC A07D2A05
Track not present in AccurateRip database
Copy OK
Track 8
Filename C:\James Carter - Present Tense (2008) [FLAC]\08 - Hymn Of The Orient.wav
Peak level 99.8 %
Track quality 100.0 %
Test CRC D3B1A0AC
Copy CRC D3B1A0AC
Track not present in AccurateRip database
Copy OK
Track 9
Filename C:\James Carter - Present Tense (2008) [FLAC]\09 - Bossa J.C..wav
Peak level 93.9 %
Track quality 100.0 %
Test CRC F38AF83B
Copy CRC F38AF83B
Track not present in AccurateRip database
Copy OK
Track 10
Filename C:\James Carter - Present Tense (2008) [FLAC]\10 - Tenderly.wav
Peak level 99.8 %
Track quality 100.0 %
Test CRC 9BAAE5E6
Copy CRC 9BAAE5E6
Track not present in AccurateRip database
Copy OK
None of the tracks are present in the AccurateRip database
No errors occurred
End of status report
Релиз группы:
По всем вопросам пишите личное сообщение пользователю M0p94ok.
04:18
382
Нет комментариев. Ваш будет первым!