Поиск

(Jazz) James Carter, Cyrus Chestnut, Ali Jackson, Reginald Veal - Gold Sounds - 2005, FLAC (image+.cue), lossless

(Jazz) James Carter, Cyrus Chestnut, Ali Jackson, Reginald Veal - Gold Sounds - 2005, FLAC (image+.cue), lossless
Треклист:
James Carter, Cyrus Chestnut, Ali Jackson, Reginald Veal - Gold Sounds
Жанр: Jazz
Год выпуска диска: 2005
Производитель диска: USA
Аудио кодек: FLAC
Тип рипа: image+.cue
Битрейт аудио: lossless
Трэклист:
1. Stereo
2. My First Mine
3. Cut Your Hair
4. Summer Babe
5. Blue Hawaiian
6. Here
7. Platform Blues
8. Trigger Cut
Доп. информация:
Personnel:
James Carter - saxophone
Cyrus Chestnut - piano
Reginald Veal - vocals, double bass
Ali Jackson - drums
Давно обещал выложить этот диск, а тут такой повод...
Обычно музыкой делятся под впечатлением посящённых концертов; в моём случае всё наоборот.
На прошлой неделе, находясь в Бостоне на the Beantown Jazz Festival, я "прощёлкал" единственный концерт этой группы за последние 2,5 года!
Вернувшись домой и переслушав альбом, решил тут же его выложить.
Этот диск - джазовая интерпретация музыки абсолютно неизвестной (мне) группы Pavement.
Картер с друзьями даёт жАру как всегда!
 
log
Exact Audio Copy V0.99 prebeta 3 from 28. July 2007
EAC extraction logfile from 3. October 2008, 15:17
Carter, James; Chestnut, Cyrus; Jackson, Ali; Veal, Reginald / Gold Sounds
Used drive : HL-DT-STDVDRAM GSA-4165B Adapter: 1 ID: 0
Read mode : Secure
Utilize accurate stream : Yes
Defeat audio cache : Yes
Make use of C2 pointers : No
Read offset correction : 667
Overread into Lead-In and Lead-Out : No
Fill up missing offset samples with silence : Yes
Delete leading and trailing silent blocks : No
Null samples used in CRC calculations : No
Used interface : Native Win32 interface for Win NT & 2000
Used output format : User Defined Encoder
Selected bitrate : 768 kBit/s
Quality : High
Add ID3 tag : No
Command line compressor : C:\Program Files\Exact Audio Copy\FLAC\FLAC.EXE
Additional command line options : -6 -V -T "ARTIST=%a" -T "TITLE=%t" -T "ALBUM=%g" -T "DATE=%y" -T "TRACKNUMBER=%n" -T "GENRE=%m" -T "COMMENT=%e" %s -o %d
TOC of the extracted CD
Track | Start | Length | Start sector | End sector
---------------------------------------------------------
1 | 0:00.00 | 6:24.16 | 0 | 28815
2 | 6:24.16 | 6:30.11 | 28816 | 58076
3 | 12:54.27 | 6:30.40 | 58077 | 87366
4 | 19:24.67 | 4:36.06 | 87367 | 108072
5 | 24:00.73 | 4:54.20 | 108073 | 130142
6 | 28:55.18 | 5:52.22 | 130143 | 156564
7 | 34:47.40 | 5:38.14 | 156565 | 181928
8 | 40:25.54 | 3:54.12 | 181929 | 199490
Range status and errors
Selected range
Filename C:\Family_Folder\Torrent\0_My_Music\Carter, James; Chestnut, Cyrus; Jackson, Ali; Veal, Reginald - Gold Sounds (2005)\Carter, James; Chestnut, Cyrus; Jackson, Ali; Veal, Reginald - Gold Sounds.wav
Peak level 100.0 %
Range quality 100.0 %
Copy CRC C77BE6F6
Copy OK
No errors occurred
AccurateRip summary
Track 1 accurately ripped (confidence 5) [4D777806]
Track 2 accurately ripped (confidence 5) [0A9B7784]
Track 3 accurately ripped (confidence 5) [677E3156]
Track 4 accurately ripped (confidence 5) [9D152E78]
Track 5 accurately ripped (confidence 5) [5955CA88]
Track 6 accurately ripped (confidence 5) [614D7C5C]
Track 7 accurately ripped (confidence 5) [F60413BD]
Track 8 accurately ripped (confidence 5) [4F0A127A]
All tracks accurately ripped
End of status report
Приватный:
Нет (DHT включён)
Размер:
247.13 Мб (259,134,890 байт) » файлов: 5
Участники:
0 раздают, 0 качают (0 участников всего)
Внешние участники:
1 раздают, 0 качают (1 участников всего) [ Обновить ]
For power users only: no seeders - write to support@pro-jazz.com. Для power user: нет сидеров - пишите на support@pro-jazz.com.
08:28
116
Нет комментариев. Ваш будет первым!