Поиск

(Jazz) Huong Thanh & Nguyen Le - Fragile Beauty - 2007, FLAC (image+.cue), lossless

(Jazz) Huong Thanh & Nguyen Le - Fragile Beauty - 2007, FLAC (image+.cue), lossless
Треклист:
Huong Thanh & Nguyên Lê - Fragile Beauty
Жанр: Jazz
Год выпуска диска: 2007
Производитель диска: EC
Аудио кодек: FLAC
Тип рипа: image+.cue
Битрейт аудио: lossless
Продолжительность: 58:15
Huong Thanh vocals
Nguyên Lê electric & acoustic guitar, synthesizer, computer
Mieko Miyazaki koto
Hao Nhiên Pham monocorde (dàn bau), 16-strings zither (dàn tranh), sao, meo bamboo flutes
Nguyên Van-Hong backing vocals
Paolo Fresu trumpet, fluegelhorn
Stéphane Guillaume soprano sax, flutes
Renaud Garcia-Fons pizz & arco acoustic 5-string bass
Etienne Mbappé fretless bass
Alex Tran percussions
Francis Lassus percussions
Illya Amar bamboo balafon (trung)
Dominique Borker piano
Drifting on the Water
Weaving & Awaiting
Faithfulness
Plantation Song
The Five Calls of the Night
Fragile Beauty
Rowing the Sampan
The Pavilion of Crystallized Azure
At Dusk, from the West Balcony
Go Cong Blues
The Swallows' Bridge
Tales of the Mountain
Recorded and mixed by Nguyên Lê at Studio Louxor, Paris Barbès, France, December 2006 - May 2007
 
EAC Report
Exact Audio Copy V0.99 prebeta 4 from 23. January 2008
EAC extraction logfile from 5. July 2008, 15:50
Huong Thanh & Nguyên Lê / Fragile Beauty
Used drive : TSSTcorpCD/DVDW SH-S182M Adapter: 2 ID: 0
Read mode : Secure
Utilize accurate stream : Yes
Defeat audio cache : Yes
Make use of C2 pointers : No
Read offset correction : 6
Overread into Lead-In and Lead-Out : No
Fill up missing offset samples with silence : Yes
Delete leading and trailing silent blocks : No
Null samples used in CRC calculations : No
Used interface : Installed external ASPI interface
Used output format : User Defined Encoder
Selected bitrate : 768 kBit/s
Quality : High
Add ID3 tag : No
Command line compressor : C:\Program Files\Exact Audio Copy\FLAC\FLAC.EXE
Additional command line options : -6 -V -T "ARTIST=%a" -T "TITLE=%t" -T "ALBUM=%g" -T "DATE=%y" -T "TRACKNUMBER=%n" -T "GENRE=%m" -T "COMMENT=%e" %s -o %d
TOC of the extracted CD
Track | Start | Length | Start sector | End sector
---------------------------------------------------------
1 | 0:00.00 | 3:48.13 | 0 | 17112
2 | 3:48.13 | 5:58.08 | 17113 | 43970
3 | 9:46.21 | 3:39.66 | 43971 | 60461
4 | 13:26.12 | 4:22.06 | 60462 | 80117
5 | 17:48.18 | 5:03.35 | 80118 | 102877
6 | 22:51.53 | 5:12.63 | 102878 | 126340
7 | 28:04.41 | 3:17.69 | 126341 | 141184
8 | 31:22.35 | 4:54.37 | 141185 | 163271
9 | 36:16.72 | 4:18.51 | 163272 | 182672
10 | 40:35.48 | 3:57.66 | 182673 | 200513
11 | 44:33.39 | 6:23.14 | 200514 | 229252
12 | 50:56.53 | 7:18.48 | 229253 | 262150
Range status and errors
Selected range
Filename F:\z\Huong Thanh & Nguyên Lê - Fragile Beauty.wav
Peak level 100.0 %
Range quality 100.0 %
Copy CRC 6DBCE7D9
Copy OK
No errors occurred
AccurateRip summary
Track 1 not present in database
Track 2 not present in database
Track 3 not present in database
Track 4 not present in database
Track 5 not present in database
Track 6 not present in database
Track 7 not present in database
Track 8 not present in database
Track 9 not present in database
Track 10 not present in database
Track 11 not present in database
Track 12 not present in database
None of the tracks are present in the AccurateRip database
End of status report


03:10
252
Нет комментариев. Ваш будет первым!