Вы используете незарегистрированную версию компонента "Вкладки"!

Поиск

(Jazz / Hard Bop / Soundtrack) Miles Davis & Michel Legrand - Dingo - 1991, Japan - 2007, FLAC (tracks+.cue), lossless

Треклист:
Miles Davis & Michel Legrand - Dingo Жанр: Jazz / Hard Bop / Soundtrack
Год выпуска альбома: 1991
Год выпуска диска: 2007
Производитель диска: Warner Music Japan | WPCR-12746 | 24-bit remaster
Аудио кодек: FLAC
Тип рипа: (tracks+.cue)
Битрейт аудио: lossless
Продолжительность: 45:45
Источник : сеть
Трэклист:
1 Kimberley Trumpet 2:15
2 The Arrival 2:05
3 Concert on the Runway 3:50
4 The Departure 1:05
5 Dingo Howl :08
6 Letter as Hero 1:22
7 Trumpet Cleaning 3:56
8 The Dream 3:45
9 Paris Walking I 1:58
10 Paris Walking II 3:17
11 Kimberley Trumpet in Paris 2:05
12 The Music Room 2:50
13 Club Entrance 4:12
14 The Jam Session 6:00
15 Going Home 2:05
16 Surprise! 4:52
 
Доп. информация
In 1990 Miles Davis starred in a movie about a veteran trumpeter (talk about typecasting) and had a rare opportunity to play part of the time in a straightahead setting. Fellow trumpeter Chuck Findley performs the solos for a younger musician who befriends Davis and Michel Legrand arranged and composed the music. There are some good moments on these selections (Findley actually overshadows Davis in some places) but since this is a soundtrack, the music does not often stand up that well by itself. It's a worthy effort but is sure to become an obscurity.
 
ЕАС
Exact Audio Copy V0.99 prebeta 5 from 4. May 2009
EAC extraction logfile from 15. August 2009, 12:02
Miles Davis & Michel Legrand / Dingo
Used drive : PIONEER DVD-RW DVR-111L Adapter: 3 ID: 0
Read mode : Secure
Utilize accurate stream : Yes
Defeat audio cache : Yes
Make use of C2 pointers : No
Read offset correction : 48
Overread into Lead-In and Lead-Out : No
Fill up missing offset samples with silence : Yes
Delete leading and trailing silent blocks : No
Null samples used in CRC calculations : Yes
Used interface : Native Win32 interface for Win NT & 2000
Gap handling : Appended to previous track
Used output format : User Defined Encoder
Selected bitrate : 1024 kBit/s
Quality : High
Add ID3 tag : No
Command line compressor : C:\Program Files\FLAC\flac.exe
Additional command line options : -8 -V -T "ARTIST=%a" -T "TITLE=%t" -T "ALBUM=%g" -T "DATE=%y" -T "TRACKNUMBER=%n" -T "GENRE=%m" -T "COMMENT=EAC FLAC -8" %s
TOC of the extracted CD
Track | Start | Length | Start sector | End sector
---------------------------------------------------------
1 | 0:00.00 | 2:41.27 | 0 | 12101
2 | 2:41.27 | 2:07.45 | 12102 | 21671
3 | 4:48.72 | 4:13.04 | 21672 | 40650
4 | 9:02.01 | 1:58.52 | 40651 | 49552
5 | 11:00.53 | 0:44.45 | 49553 | 52897
6 | 11:45.23 | 1:23.38 | 52898 | 59160
7 | 13:08.61 | 3:59.58 | 59161 | 77143
8 | 17:08.44 | 3:52.58 | 77144 | 94601
9 | 21:01.27 | 2:04.59 | 94602 | 103960
10 | 23:06.11 | 3:17.12 | 103961 | 118747
11 | 26:23.23 | 2:14.62 | 118748 | 128859
12 | 28:38.10 | 2:41.64 | 128860 | 140998
13 | 31:19.74 | 4:16.00 | 140999 | 160198
14 | 35:35.74 | 6:29.42 | 160199 | 189415
15 | 42:05.41 | 2:11.27 | 189416 | 199267
16 | 44:16.68 | 5:17.10 | 199268 | 223052
Track 1
Filename C:\Miles Davis & Michel Legrand - Dingo (1991) {Japan MiniLP 2007, WPCR-12746}\01 - Kimberley Trumpet.wav
Pre-gap length 0:00:02.00
Peak level 87.8 %
Track quality 99.9 %
Test CRC FDD60051
Copy CRC FDD60051
Accurately ripped (confidence 2) [08D5CD20]
Copy OK
Track 2
Filename C:\Miles Davis & Michel Legrand - Dingo (1991) {Japan MiniLP 2007, WPCR-12746}\02 - The Arrival.wav
Peak level 72.4 %
Track quality 100.0 %
Test CRC 8B89F5DC
Copy CRC 8B89F5DC
Accurately ripped (confidence 2) [6FF822E0]
Copy OK
Track 3
Filename C:\Miles Davis & Michel Legrand - Dingo (1991) {Japan MiniLP 2007, WPCR-12746}\03 - Concert On The Runway.wav
Peak level 100.0 %
Track quality 100.0 %
Test CRC 39BA1400
Copy CRC 39BA1400
Accurately ripped (confidence 2) [3B77016B]
Copy OK
Track 4
Filename C:\Miles Davis & Michel Legrand - Dingo (1991) {Japan MiniLP 2007, WPCR-12746}\04 - The Departure.wav
Peak level 100.0 %
Track quality 100.0 %
Test CRC F52D8550
Copy CRC F52D8550
Accurately ripped (confidence 2) [020BC26E]
Copy OK
Track 5
Filename C:\Miles Davis & Michel Legrand - Dingo (1991) {Japan MiniLP 2007, WPCR-12746}\05 - Dingo Howl.wav
Peak level 63.4 %
Track quality 100.0 %
Test CRC D5F7F09B
Copy CRC D5F7F09B
Accurately ripped (confidence 2) [F71567D7]
Copy OK
Track 6
Filename C:\Miles Davis & Michel Legrand - Dingo (1991) {Japan MiniLP 2007, WPCR-12746}\06 - Letter As Hero.wav
Peak level 100.0 %
Track quality 100.0 %
Test CRC 4CF438BE
Copy CRC 4CF438BE
Accurately ripped (confidence 2) [55BABDAB]
Copy OK
Track 7
Filename C:\Miles Davis & Michel Legrand - Dingo (1991) {Japan MiniLP 2007, WPCR-12746}\07 - Trumpet Cleaning.wav
Peak level 100.0 %
Track quality 100.0 %
Test CRC 30D9720A
Copy CRC 30D9720A
Accurately ripped (confidence 2) [05EAEADF]
Copy OK
Track 8
Filename C:\Miles Davis & Michel Legrand - Dingo (1991) {Japan MiniLP 2007, WPCR-12746}\08 - The Dream.wav
Pre-gap length 0:00:01.07
Peak level 100.0 %
Track quality 99.9 %
Test CRC 23C75C82
Copy CRC 23C75C82
Accurately ripped (confidence 2) [5C10955E]
Copy OK
Track 9
Filename C:\Miles Davis & Michel Legrand - Dingo (1991) {Japan MiniLP 2007, WPCR-12746}\09 - Paris Walking I.wav
Pre-gap length 0:00:01.26
Peak level 90.7 %
Track quality 100.0 %
Test CRC 457229F9
Copy CRC 457229F9
Accurately ripped (confidence 2) [FF31E644]
Copy OK
Track 10
Filename C:\Miles Davis & Michel Legrand - Dingo (1991) {Japan MiniLP 2007, WPCR-12746}\10 - Paris Walking II.wav
Peak level 100.0 %
Track quality 100.0 %
Test CRC 35B2B6DA
Copy CRC 35B2B6DA
Accurately ripped (confidence 2) [30AF2EE1]
Copy OK
Track 11
Filename C:\Miles Davis & Michel Legrand - Dingo (1991) {Japan MiniLP 2007, WPCR-12746}\11 - Kimberley Trumpet In Paris.wav
Peak level 76.3 %
Track quality 99.9 %
Test CRC 08DA48D8
Copy CRC 08DA48D8
Accurately ripped (confidence 2) [660FB8C4]
Copy OK
Track 12
Filename C:\Miles Davis & Michel Legrand - Dingo (1991) {Japan MiniLP 2007, WPCR-12746}\12 - The Music Room.wav
Peak level 100.0 %
Track quality 100.0 %
Test CRC 8A4E79B5
Copy CRC 8A4E79B5
Accurately ripped (confidence 2) [4D70E003]
Copy OK
Track 13
Filename C:\Miles Davis & Michel Legrand - Dingo (1991) {Japan MiniLP 2007, WPCR-12746}\13 - Club Entrance.wav
Peak level 100.0 %
Track quality 99.9 %
Test CRC 64B4F96E
Copy CRC 64B4F96E
Accurately ripped (confidence 2) [97D2F273]
Copy OK
Track 14
Filename C:\Miles Davis & Michel Legrand - Dingo (1991) {Japan MiniLP 2007, WPCR-12746}\14 - The Jam Session.wav
Peak level 100.0 %
Track quality 100.0 %
Test CRC 749E3E2D
Copy CRC 749E3E2D
Accurately ripped (confidence 2) [968B6641]
Copy OK
Track 15
Filename C:\Miles Davis & Michel Legrand - Dingo (1991) {Japan MiniLP 2007, WPCR-12746}\15 - Going Home.wav
Peak level 100.0 %
Track quality 100.0 %
Test CRC 4226893E
Copy CRC 4226893E
Accurately ripped (confidence 2) [32557A3B]
Copy OK
Track 16
Filename C:\Miles Davis & Michel Legrand - Dingo (1991) {Japan MiniLP 2007, WPCR-12746}\16 - Surprise!.wav
Peak level 100.0 %
Track quality 99.9 %
Test CRC F70CC1AB
Copy CRC F70CC1AB
Accurately ripped (confidence 2) [1552FFB0]
Copy OK
All tracks accurately ripped
No errors occurred
End of status report
 
Audiochecker
Any questions - support@pro-jazz.com. Есть вопросы - support@pro-jazz.com
22:46
252
Нет комментариев. Ваш будет первым!