Поиск

(Jazz, Hard Bop, Post-Bop, Avant-Garde) James Carter - Jurassic Classics - 1994, FLAC (image+.cue) losseless

(Jazz, Hard Bop, Post-Bop, Avant-Garde) James Carter - Jurassic Classics - 1994, FLAC (image+.cue) losseless
Треклист:
James Carter - Jurassic Classics
Жанр: Jazz, Hard Bop, Post-Bop, Avant-Garde
Год выпуска диска: 1994
Производитель диска: Россия
Аудио кодек: FLAC
Тип рипа: image+.cue
Продолжительность: 57:24
Трэклист:
1 Take the "A" Train (Strayhorn) 11:03
2 Out of Nowhere (Green, Heyman) 4:29
3 Epistrophy (Clarke, Monk) 13:45
4 Ask Me Now (Monk) 7:11
5 Equinox (Coltrane) 8:40
6 Sandu (Brown) 7:34
7 Oleo (Rollins) 4:30
Состав:
James Carter - Sax (Alto), Sax (Soprano), Sax (Tenor)
Jaribu Shahid - Bass
Tani Tabbal - Drums
Craig Taborn - Piano
 
EAC Log
Exact Audio Copy V0.99 prebeta 5 from 4. May 2009
EAC extraction logfile from 31. August 2009, 15:45
James Carter Quartet / Jurassic Classics
Used drive  : Optiarc DVD RW AD-7543A   Adapter: 2  ID: 0
Read mode               : Secure
Utilize accurate stream : Yes
Defeat audio cache      : Yes
Make use of C2 pointers : No
Read offset correction                      : 48
Overread into Lead-In and Lead-Out          : No
Fill up missing offset samples with silence : Yes
Delete leading and trailing silent blocks   : No
Null samples used in CRC calculations       : Yes
Used interface                              : Native Win32 interface for Win NT & 2000
Used output format : Internal WAV Routines
Sample format      : 44.100 Hz; 16 Bit; Stereo
TOC of the extracted CD
     Track |   Start  |  Length  | Start sector | End sector
    ---------------------------------------------------------
        1  |  0:00.00 | 11:03.62 |         0    |    49786
        2  | 11:03.62 |  4:30.60 |     49787    |    70096
        3  | 15:34.47 | 13:48.40 |     70097    |   132236
        4  | 29:23.12 |  7:13.38 |    132237    |   164749
        5  | 36:36.50 |  8:42.05 |    164750    |   203904
        6  | 45:18.55 |  7:35.30 |    203905    |   238059
        7  | 52:54.10 |  4:29.65 |    238060    |   258299
Range status and errors
Selected range
     Filename Z:\home\igo\eac\CDImage.wav
     Peak level 100.0 %
     Range quality 100.0 %
     Copy CRC 84FB5250
     Copy OK
No errors occurred
AccurateRip summary
Track  1  cannot be verified as accurate (confidence 6)  [EFC71951], AccurateRip returned [767C3A66]
Track  2  cannot be verified as accurate (confidence 6)  [E7F26624], AccurateRip returned [E8B69418]
Track  3  cannot be verified as accurate (confidence 6)  [FB065640], AccurateRip returned [BAC8CFBC]
Track  4  cannot be verified as accurate (confidence 6)  [028B532B], AccurateRip returned [2B1ED201]
Track  5  cannot be verified as accurate (confidence 6)  [7E11BE38], AccurateRip returned [B613DE38]
Track  6  cannot be verified as accurate (confidence 6)  [BD56B7FD], AccurateRip returned [6B009CAD]
Track  7  cannot be verified as accurate (confidence 6)  [E8F7757A], AccurateRip returned [FF102E58]
No tracks could be verified as accurate
You may have a different pressing from the one(s) in the database
End of status report
 
 
auCDtect
auCDtect: CD records authenticity detector, version 0.8.2
Copyright (c) 2004 Oleg Berngardt. All rights reserved.
Copyright (c) 2004 Alexander Djourik. All rights reserved.
------------------------------------------------------------
Processing file: [CDImage.wav]
Detected average hi-boundary frequency: 2.032993e+04 Hz
Detected average lo-boundary frequency: 1.428709e+04 Hz
Detected average hi-cut frequency: 2.188300e+04 Hz
Detected average lo-cut frequency: 1.515910e+04 Hz
Maximum probablis boundary frequency: 2.189100e+04 Hz
Coefficient of nonlinearity of a phase: 1.104774e-01
First order smothness: 3.627337e-01
Second order smothness: 6.792922e-01
------------------------------------------------------------
This track looks like CDDA with probability 100%
------------------------------------------------------------
Final Conclusion:
------------------------------------------------------------
These tracks looks like CDDA with probability 100%
 
По всем вопросам пишите личное сообщение пользователю M0p94ok.
22:32
366
Нет комментариев. Ваш будет первым!