Поиск

(Jazz) George Duke - Face The Music - 2002, APE (image + .cue), lossless

(Jazz) George Duke - Face The Music - 2002, APE (image + .cue), lossless
Треклист:
George Duke - Face The Music
Страна: USA
Жанр: Jazz
Год выпуска: 2002
Формат: APE (image + .cue)
Битрейт аудио: lossless
Продолжительность: 1:10:54
Трэклист:
1. The Black Messiah, Pt. 2 (8:22)
2. Chillin' (5:36)
3. My Piano (7:26)
4. Guess You're Not the One (7:28)
5. Let's Roll (8:14)
6. Ain't It Funky Now (4:20)
7. Close to You (5:52)
8. Another Way to Look at It (7:17)
9. Creepin' (4:50)
10. Ten Mile Jog (11:27)
Доп. информация: Альбом записан в свойственной для Дюка манере совмещать разные стили на одном диске. Как обычно, в наличии и смута (SmoothJazz), и фьюжн, и фанк. В целом весьма слушабельный альбом.
 
Отчёт EAC
Exact Audio Copy V0.99 prebeta 4 from 23. January 2008
Отчёт EAC об извлечении, выполненном 1. февраля 2008, 15:26
George Duke / Face The Music
Дисковод: Optiarc DVD RW AD-7170A Adapter: 0 ID: 0
Режим чтения : Достоверность
Использование точного потока : Да
Отключение кэша аудио : Да
Использование указателей C2 : Нет
Коррекция смещения при чтении : 48
Способность читать области Lead-in и Lead-out : Нет
Заполнение пропущенных сэмплов тишиной : Да
Удаление блоков с тишиной в начале и конце : Нет
При вычислениях CRC использовались нулевые сэмплы : Да
Интерфейс : Встроенный Win32-интерфейс для Win NT/2000
Выходной формат : Внутренние WAV-операции
Формат сэмплов : 44.100 Гц; 16 бит; стерео
TOC извлечённого CD
Трек | Старт | Длительность | Начальный сектор | Конечный сектор
---------------------------------------------------------------------
1 | 0:00.00 | 8:22.48 | 0 | 37697
2 | 8:22.48 | 5:36.74 | 37698 | 62971
3 | 13:59.47 | 7:26.74 | 62972 | 96495
4 | 21:26.46 | 7:28.37 | 96496 | 130132
5 | 28:55.08 | 8:14.09 | 130133 | 167191
6 | 37:09.17 | 4:20.10 | 167192 | 186701
7 | 41:29.27 | 5:52.14 | 186702 | 213115
8 | 47:21.41 | 7:17.50 | 213116 | 245940
9 | 54:39.16 | 4:50.61 | 245941 | 267751
10 | 59:30.02 | 11:27.14 | 267752 | 319290
Характеристики диапазона извлечения и сообщения об ошибках
Выбранный диапазон
Имя файла C:\Documents and Settings\...\ISOs\George Duke - Face The Music.wav
Пиковый уровень 100.0 %
Качество диапазона 99.9 %
CRC копии 3C1C18B0
Копирование... OK
Ошибок не произошло
Конец отчёта
P.S.: mp3-версия
Приватный:
Нет (DHT включён)
Размер:
405.41 Мб (425,102,366 байт) » файлов: 3
Участники:
0 раздают, 0 качают (0 участников всего)
Внешние участники:
5 раздают, 2 качают (7 участников всего) [ Обновить ]
Никого нет на раздаче - пишите ЛС M0p94ok
No seeders - write PM to M0p94ok
12:06
25
Нет комментариев. Ваш будет первым!