Поиск

(jazz, fusion, world) George Brooks With Krishna Bhatt & Zakir Hussain - Lasting Impression (1996), FLAC (tracks+.cue) lossless



George Brooks With Krishna Bhatt & Zakir Hussain
Lasting Impression (1996)

Жанр: jazz, fusion, world
Год издания диска: 1996
Издатель (лейбл): moment records
Номер по каталогу: mrcd 1016
Аудио кодек: FLAC (*.flac)
Тип рипа: tracks+.cue
Битрейт аудио: lossless
Продолжительность: 44`16
Источник (релизер): ed2k
Наличие сканов в содержимом раздачи: да
Krishna Bhatt Composer, Sitar
George Brooks Clarinet (Bass), Sax (Soprano), Sax (Tenor)
Dave Rokeach Drums
Michael Spiro Percussion
Треклист:
"01 - Taj Exress"
"02 - Days Of Rain"
"03 - Lasting Impression"
"04 - Eagles Beak"
"05 - Fallen Rose"
 
Лог создания рипа
Exact Audio Copy V0.99 prebeta 5 from 4. May 2009
EAC extraction logfile from 23. September 2010, 10:14
George Brooks With Krishna Bhatt & Zakir Hussain / Lasting Impression
Used drive : MOSER BAER DH-22A8S Adapter: 2 ID: 1
Read mode : Secure
Utilize accurate stream : Yes
Defeat audio cache : Yes
Make use of C2 pointers : No
Read offset correction : 6
Overread into Lead-In and Lead-Out : No
Fill up missing offset samples with silence : Yes
Delete leading and trailing silent blocks : No
Null samples used in CRC calculations : Yes
Used interface : Installed external ASPI interface
Gap handling : Appended to previous track
Used output format : Internal WAV Routines
Sample format : 44.100 Hz; 16 Bit; Stereo
TOC of the extracted CD
Track | Start | Length | Start sector | End sector
---------------------------------------------------------
1 | 0:00.00 | 7:20.42 | 0 | 33041
2 | 7:20.42 | 9:24.13 | 33042 | 75354
3 | 16:44.55 | 8:34.07 | 75355 | 113911
4 | 25:18.62 | 7:28.60 | 113912 | 147571
5 | 32:47.47 | 11:28.23 | 147572 | 199194
Track 1
Filename E:\Wildstrings\01 - Taj Exress.wav
Pre-gap length 0:00:02.00
Peak level 100.0 %
Track quality 100.0 %
Test CRC 787FF405
Copy CRC 787FF405
Accurately ripped (confidence 1) [2F09AC55]
Copy OK
Track 2
Filename E:\Wildstrings\02 - Days Of Rain.wav
Pre-gap length 0:00:01.24
Peak level 100.0 %
Track quality 99.9 %
Test CRC C33F24D1
Copy CRC C33F24D1
Accurately ripped (confidence 1) [7AB06064]
Copy OK
Track 3
Filename E:\Wildstrings\03 - Lasting Impression.wav
Pre-gap length 0:00:00.32
Peak level 99.9 %
Track quality 100.0 %
Test CRC D97C566B
Copy CRC D97C566B
Accurately ripped (confidence 1) [54B90B80]
Copy OK
Track 4
Filename E:\Wildstrings\04 - Eagles Beak.wav
Pre-gap length 0:00:01.22
Peak level 100.0 %
Track quality 100.0 %
Test CRC 2883475C
Copy CRC 2883475C
Accurately ripped (confidence 1) [C3F46145]
Copy OK
Track 5
Filename E:\Wildstrings\05 - Fallen Rose.wav
Pre-gap length 0:00:00.24
Peak level 100.0 %
Track quality 100.0 %
Test CRC A4384461
Copy CRC A4384461
Accurately ripped (confidence 1) [0B4A9002]
Copy OK
All tracks accurately ripped
No errors occurred
End of status report
 
Содержание индексной карты (.CUE)
REM GENRE Fusion
REM DATE 1996
REM DISCID 340A5F05
REM COMMENT "ExactAudioCopy v0.99pb5"
PERFORMER "George Brooks With Krishna Bhatt & Zakir Hussain"
TITLE "Lasting Impression"
FILE "01 - Taj Exress.wav" WAVE
TRACK 01 AUDIO
TITLE "Taj Exress"
PERFORMER "George Brooks With Krishna Bhatt & Zakir Hussain"
INDEX 01 00:00:00
TRACK 02 AUDIO
TITLE "Days Of Rain"
PERFORMER "George Brooks With Krishna Bhatt & Zakir Hussain"
INDEX 00 07:19:18
FILE "02 - Days Of Rain.wav" WAVE
INDEX 01 00:00:00
TRACK 03 AUDIO
TITLE "Lasting Impression"
PERFORMER "George Brooks With Krishna Bhatt & Zakir Hussain"
INDEX 00 09:23:56
FILE "03 - Lasting Impression.wav" WAVE
INDEX 01 00:00:00
TRACK 04 AUDIO
TITLE "Eagles Beak"
PERFORMER "George Brooks With Krishna Bhatt & Zakir Hussain"
INDEX 00 08:32:60
FILE "04 - Eagles Beak.wav" WAVE
INDEX 01 00:00:00
TRACK 05 AUDIO
TITLE "Fallen Rose"
PERFORMER "George Brooks With Krishna Bhatt & Zakir Hussain"
INDEX 00 07:28:36
FILE "05 - Fallen Rose.wav" WAVE
INDEX 01 00:00:00
Приватный:
Нет (DHT включён)
Размер:
277.78 Мб (291,277,529 байт) » файлов: 15
Участники:
0 раздают, 0 качают (0 участников всего)
Внешние участники:
2 раздают, 1 качают (3 участников всего) [ Обновить ]
18:28
336
Нет комментариев. Ваш будет первым!