Поиск

(Jazz Fusion) The Brecker Brothers Band - Back To Back {1975} - 2012, FLAC (tracks+.cue), lossless

(Jazz Fusion) The Brecker Brothers Band - Back To Back {1975} - 2012, FLAC (tracks+.cue), lossless
Треклист:
♦ The Brecker Brothers Band - Back To Back {1975} ♦
Жанр: Jazz Fusion
Год издания: 2012
Издатель (лейбл): SoulMusic Records
Номер по каталогу: SMCR5076
Аудиокодек: FLAC (*.flac)
Тип рипа: tracks+.cue
Битрейт аудио: lossless
Продолжительность: 00:55:27
Источник (релизер): artmuss
Наличие сканов в содержимом раздачи: нет
Треклист:
01. Keep It Steady (Brecker Bump) [06:24]
02. If You Wanna Boogie...Forget It [03:58]
03. Lovely Lady [06:17]
04. Night Flight [06:17]
05. Slick Stuff [04:48]
06. Dig A Little Deeper [04:00]
07. Grease Peace [05:47]
08. What Can A Miracle Do [04:16]
09. I Love Wastin' Time With You [06:31]
10. If You Wanna Boogie...Forget It (Single Version) [Bonus Track] [03:11]
11. Slick Stuff (Single Version) [Bonus Track] [03:54]
 
Лог создания рипа
Exact Audio Copy V1.0 beta 3 from 29. August 2011
EAC extraction logfile from 18. March 2013, 19:08
The Brecker Brothers / Back To Back
Used drive : HP DVD Writer 1260t Adapter: 4 ID: 0
Read mode : Secure
Utilize accurate stream : Yes
Defeat audio cache : Yes
Make use of C2 pointers : No
Read offset correction : 6
Overread into Lead-In and Lead-Out : No
Fill up missing offset samples with silence : Yes
Delete leading and trailing silent blocks : No
Null samples used in CRC calculations : Yes
Used interface : Native Win32 interface for Win NT & 2000
Gap handling : Appended to previous track
Used output format : User Defined Encoder
Selected bitrate : 128 kBit/s
Quality : High
Add ID3 tag : No
Command line compressor : C:\Program Files (x86)\Exact Audio Copy\Flac\flac.exe
Additional command line options : -8 -V -T "ARTIST=%artist%" -T "TITLE=%title%" -T "ALBUM=%albumtitle%" -T "DATE=%year%" -T "TRACKNUMBER=%tracknr%" -T "GENRE=%genre%" -T "PERFORMER=%albuminterpret%" -T "COMPOSER=%composer%" %haslyrics%--tag-from-file=LYRICS="%lyricsfile%"%haslyrics% -T "ALBUMARTIST=%albumartist%" -T "DISCNUMBER=%cdnumber%" -T "TOTALDISCS=%totalcds%" -T "TOTALTRACKS=%numtracks%" -T "COMMENT=%comment%" %source% -o %dest%
TOC of the extracted CD
Track | Start | Length | Start sector | End sector
---------------------------------------------------------
1 | 0:00.00 | 6:24.39 | 0 | 28838
2 | 6:24.39 | 3:58.10 | 28839 | 46698
3 | 10:22.49 | 6:17.69 | 46699 | 75042
4 | 16:40.43 | 6:17.34 | 75043 | 103351
5 | 22:58.02 | 4:48.22 | 103352 | 124973
6 | 27:46.24 | 4:00.00 | 124974 | 142973
7 | 31:46.24 | 5:47.41 | 142974 | 169039
8 | 37:33.65 | 4:16.19 | 169040 | 188258
9 | 41:50.09 | 6:31.43 | 188259 | 217626
10 | 48:21.52 | 3:11.29 | 217627 | 231980
11 | 51:33.06 | 3:54.60 | 231981 | 249590
Track 1
Filename F:\Music Place\FLAC & WAV\The Brecker Brothers - Back To Back (1976)\01. The Brecker Brothers - Keep It Steady (Brecker Bump).wav
Pre-gap length 0:00:02.00
Peak level 100.0 %
Extraction speed 3.7 X
Track quality 100.0 %
Test CRC F6D92D67
Copy CRC F6D92D67
Track not present in AccurateRip database
Copy OK
Track 2
Filename F:\Music Place\FLAC & WAV\The Brecker Brothers - Back To Back (1976)\02. The Brecker Brothers - If You Wanna Boogie...Forget It.wav
Peak level 100.0 %
Extraction speed 4.0 X
Track quality 100.0 %
Test CRC 6C68200A
Copy CRC 6C68200A
Track not present in AccurateRip database
Copy OK
Track 3
Filename F:\Music Place\FLAC & WAV\The Brecker Brothers - Back To Back (1976)\03. The Brecker Brothers - Lovely Lady.wav
Peak level 100.0 %
Extraction speed 4.7 X
Track quality 100.0 %
Test CRC 9B1EF81E
Copy CRC 9B1EF81E
Track not present in AccurateRip database
Copy OK
Track 4
Filename F:\Music Place\FLAC & WAV\The Brecker Brothers - Back To Back (1976)\04. The Brecker Brothers - Night Flight.wav
Peak level 99.9 %
Extraction speed 4.4 X
Track quality 99.9 %
Test CRC 3CCA2540
Copy CRC 3CCA2540
Track not present in AccurateRip database
Copy OK
Track 5
Filename F:\Music Place\FLAC & WAV\The Brecker Brothers - Back To Back (1976)\05. The Brecker Brothers - Slick Stuff.wav
Peak level 100.0 %
Extraction speed 5.3 X
Track quality 100.0 %
Test CRC 90EB71A6
Copy CRC 90EB71A6
Track not present in AccurateRip database
Copy OK
Track 6
Filename F:\Music Place\FLAC & WAV\The Brecker Brothers - Back To Back (1976)\06. The Brecker Brothers - Dig A Little Deeper.wav
Peak level 99.9 %
Extraction speed 4.3 X
Track quality 99.9 %
Test CRC 4DFA5637
Copy CRC 4DFA5637
Track not present in AccurateRip database
Copy OK
Track 7
Filename F:\Music Place\FLAC & WAV\The Brecker Brothers - Back To Back (1976)\07. The Brecker Brothers - Grease Peace.wav
Peak level 100.0 %
Extraction speed 6.0 X
Track quality 100.0 %
Test CRC AB958868
Copy CRC AB958868
Track not present in AccurateRip database
Copy OK
Track 8
Filename F:\Music Place\FLAC & WAV\The Brecker Brothers - Back To Back (1976)\08. The Brecker Brothers - What Can A Miracle Do.wav
Peak level 100.0 %
Extraction speed 6.1 X
Track quality 100.0 %
Test CRC 632A9FE1
Copy CRC 632A9FE1
Track not present in AccurateRip database
Copy OK
Track 9
Filename F:\Music Place\FLAC & WAV\The Brecker Brothers - Back To Back (1976)\09. The Brecker Brothers - I Love Wastin' Time With You.wav
Peak level 100.0 %
Extraction speed 6.7 X
Track quality 100.0 %
Test CRC A404679D
Copy CRC A404679D
Track not present in AccurateRip database
Copy OK
Track 10
Filename F:\Music Place\FLAC & WAV\The Brecker Brothers - Back To Back (1976)\10. The Brecker Brothers - If You Wanna Boogie...Forget It (Single Version) [Bonus Track].wav
Peak level 100.0 %
Extraction speed 6.3 X
Track quality 100.0 %
Test CRC 32A1A10E
Copy CRC 32A1A10E
Track not present in AccurateRip database
Copy OK
Track 11
Filename F:\Music Place\FLAC & WAV\The Brecker Brothers - Back To Back (1976)\11. The Brecker Brothers - Slick Stuff (Single Version) [Bonus Track].wav
Peak level 99.9 %
Extraction speed 5.6 X
Track quality 100.0 %
Test CRC 93D50C62
Copy CRC 93D50C62
Track not present in AccurateRip database
Copy OK
None of the tracks are present in the AccurateRip database
No errors occurred
End of status report
---- CUETools DB Plugin V2.1.3
[CTDB TOCID: QbQMKCGTk3KM5I7szMTWcPYUNlU-] disk not present in database, Submit result: QbQMKCGTk3KM5I7szMTWcPYUNlU- has been uploaded
==== Log checksum 902A9C7A41CD6020D78F9BF3D4539F885D818CFAAD253CC5BF21E0E647E6C3B3 ====
 
Содержание индексной карты (.CUE)
REM GENRE Jazz-Funk
REM DATE 1976
REM DISCID 8C0CFF0B
REM COMMENT "ExactAudioCopy v1.0b3"
PERFORMER "The Brecker Brothers"
TITLE "Back To Back"
FILE "01. The Brecker Brothers - Keep It Steady (Brecker Bump).wav" WAVE
TRACK 01 AUDIO
TITLE "Keep It Steady (Brecker Bump)"
PERFORMER "The Brecker Brothers"
INDEX 01 00:00:00
FILE "02. The Brecker Brothers - If You Wanna Boogie...Forget It.wav" WAVE
TRACK 02 AUDIO
TITLE "If You Wanna Boogie...Forget It"
PERFORMER "The Brecker Brothers"
INDEX 01 00:00:00
FILE "03. The Brecker Brothers - Lovely Lady.wav" WAVE
TRACK 03 AUDIO
TITLE "Lovely Lady"
PERFORMER "The Brecker Brothers"
INDEX 01 00:00:00
FILE "04. The Brecker Brothers - Night Flight.wav" WAVE
TRACK 04 AUDIO
TITLE "Night Flight"
PERFORMER "The Brecker Brothers"
INDEX 01 00:00:00
FILE "05. The Brecker Brothers - Slick Stuff.wav" WAVE
TRACK 05 AUDIO
TITLE "Slick Stuff"
PERFORMER "The Brecker Brothers"
INDEX 01 00:00:00
FILE "06. The Brecker Brothers - Dig A Little Deeper.wav" WAVE
TRACK 06 AUDIO
TITLE "Dig A Little Deeper"
PERFORMER "The Brecker Brothers"
INDEX 01 00:00:00
FILE "07. The Brecker Brothers - Grease Peace.wav" WAVE
TRACK 07 AUDIO
TITLE "Grease Peace"
PERFORMER "The Brecker Brothers"
INDEX 01 00:00:00
FILE "08. The Brecker Brothers - What Can A Miracle Do.wav" WAVE
TRACK 08 AUDIO
TITLE "What Can A Miracle Do"
PERFORMER "The Brecker Brothers"
INDEX 01 00:00:00
FILE "09. The Brecker Brothers - I Love Wastin' Time With You.wav" WAVE
TRACK 09 AUDIO
TITLE "I Love Wastin' Time With You"
PERFORMER "The Brecker Brothers"
INDEX 01 00:00:00
FILE "10. The Brecker Brothers - If You Wanna Boogie...Forget It (Single Version) [Bonus Track].wav" WAVE
TRACK 10 AUDIO
TITLE "If You Wanna Boogie...Forget It (Single Version) [Bonus Track]"
PERFORMER "The Brecker Brothers"
INDEX 01 00:00:00
FILE "11. The Brecker Brothers - Slick Stuff (Single Version) [Bonus Track].wav" WAVE
TRACK 11 AUDIO
TITLE "Slick Stuff (Single Version) [Bonus Track]"
PERFORMER "The Brecker Brothers"
INDEX 01 00:00:00
 
Состав
Personnel:
Randy Brecker - trumpet, electric trumpet, flugelhorn
Michael Brecker - tenor saxophone, flute
Dave Sanborn - alto saxophone
Don Grolnick - keyboards
Steve Khan - guitar
Will Lee - electric bass, lead vocals
Christopher Parker - drums
Steve Gadd - drums (#4,9)
Ralph MacDonald - percussion
Sammy Figueroa, Rafael Cruz - percussion (#4)
Lew Del Gatto - baritone saxophone (#2)
Dave Friedman - marimba (#6)
Dave Whitman - synthesizer programmer
Patti Austin, Luther Vandross. Robin Clark, Diane Sumler - vocalsRecorded in New York City in 1975.
20:27
640
Нет комментариев. Ваш будет первым!