Поиск

(Jazz, Fusion, Post-Bop, Progressive Jazz, Free Jazz) Jaco Pastorius - Heavy'n Jazz & Stuttgart Aria (2CD) - 1998, FLAC (tracks+.cue), lossless

(Jazz, Fusion, Post-Bop, Progressive Jazz, Free Jazz) Jaco Pastorius - Heavy'n Jazz & Stuttgart Aria (2CD) - 1998, FLAC (tracks+.cue), lossless
Треклист:
Jaco Pastorius / Heavy'n Jazz & Stuttgart Aria (2CD)
Жанр: Jazz; Fusion; Post-Bop; Progressive Jazz; Free Jazz
Страна-производитель диска: Germany
Год издания диска: 1998
Издатель (лейбл): Jazzpoint Records
Номер по каталогу: DCD JP 1058
Страна: USA
Аудиокодек: FLAC (*.flac)
Тип рипа: tracks+.cue
Битрейт аудио: lossless
Продолжительность: 68:15 + 60:02
Источник (релизер): CDs
Наличие сканов в содержимом раздачи: да
Треклист:
Disc 1: Heavy’n Jazz (68:15)
01. Broadway Blues (O. Coleman) 12:47
02. Bluma / Smoke on the Water (B. Lagrene) / (Deep Purple) 6:49
03. The Medley: Purple Haze / The Third Stone from the Sun / Teen Town
(J. Hendrix) / (J. Hendrix) / (J. Pastorius) 17:48
04. Star Spangled Banner (J. Hendrix) 5:07
05. Reza (J. Pastorius) 5:39
06. Honestly (J. Pastorius) 6:30
07. Invitation (B. Kaper) 7:54
08. Jaco Reggae (J.Jankeje) 5:57
Disc 2: Stuttgart Aria (60:02)
01. American Boy 4:44
02. Donna Lee (Ch. Parker) 4:44
03. Stuttgart Aria I 7:39
04. Jaco Reggae (J. Jankeje) 6:02
05. The Chicken (A.J. Ellis) 5:52
06. Teresa (J. Pastorius) 8:55
07. Stttgart Aria II 10:08
08. The Days of Wine and Roses (H. Manchini) 6:26

ВНИМАНИЕ: В скором времени данная раздача будет удалена, т.к. она включена в состав другой раздачи: Jaco Pastorius - JazzPoint Collection (Germany) - 6 CD, в которую включены, наряду с бокс-сетом "Heavy'n Jazz" & "Stuttgart Aria", ещё два бокс-сета: "Broadway Blues" & "Teresa" и "Live in Italy" & "Honestly". Адрес раздачи: http://rutracker.org/forum/viewtopic.php?t=4001688
 
Лог создания рипа
 
CD1: Heavy’n Jazz
Exact Audio Copy V0.99 prebeta 5 from 4. May 2009
EAC extraction logfile from 29. June 2011, 16:22
Jaco Pastorius / Heavy'n Jazz
Used drive : Optiarc DVD RW AD-7700H Adapter: 0 ID: 1
Read mode : Secure
Utilize accurate stream : Yes
Defeat audio cache : Yes
Make use of C2 pointers : No
Read offset correction : 48
Overread into Lead-In and Lead-Out : No
Fill up missing offset samples with silence : Yes
Delete leading and trailing silent blocks : No
Null samples used in CRC calculations : Yes
Used interface : Native Win32 interface for Win NT & 2000
Gap handling : Appended to previous track
Used output format : User Defined Encoder
Selected bitrate : 768 kBit/s
Quality : High
Add ID3 tag : No
Command line compressor : C:\Program Files (x86)\Exact Audio Copy\FLAC\FLAC.EXE
Additional command line options : -8 -V -T "ARTIST=%a" -T "TITLE=%t" -T "ALBUM=%g" -T "DATE=%y" -T "TRACKNUMBER=%n" -T "GENRE=%m" -T "COMMENT=EAC FLAC -8" %s
TOC of the extracted CD
Track | Start | Length | Start sector | End sector
---------------------------------------------------------
1 | 0:00.33 | 12:46.55 | 33 | 57537
2 | 12:47.13 | 6:48.52 | 57538 | 88189
3 | 19:35.65 | 17:48.18 | 88190 | 168307
4 | 37:24.08 | 5:06.42 | 168308 | 191299
5 | 42:30.50 | 5:39.25 | 191300 | 216749
6 | 48:10.00 | 6:29.68 | 216750 | 245992
7 | 54:39.68 | 7:53.65 | 245993 | 281532
8 | 62:33.58 | 5:57.37 | 281533 | 308344
Track 1
Filename C:\Users\sony\Music\Rutracker_Seeds\01 - Broadman Blues.wav
Pre-gap length 0:00:02.33
Peak level 97.7 %
Track quality 99.9 %
Test CRC 98B0EE1B
Copy CRC 98B0EE1B
Accurately ripped (confidence 6) [ABCD5BD9]
Copy OK
Track 2
Filename C:\Users\sony\Music\Rutracker_Seeds\02 - Bluma - Smoke On The Water.wav
Peak level 97.7 %
Track quality 100.0 %
Test CRC A8590AE0
Copy CRC A8590AE0
Accurately ripped (confidence 6) [0A3A513B]
Copy OK
Track 3
Filename C:\Users\sony\Music\Rutracker_Seeds\03 - The Medley - Purple Haze, The Third Stone From The Sun, Teen Town.wav
Pre-gap length 0:00:02.47
Peak level 97.7 %
Track quality 99.9 %
Test CRC 8E2AEA8D
Copy CRC 8E2AEA8D
Accurately ripped (confidence 6) [7821CFD2]
Copy OK
Track 4
Filename C:\Users\sony\Music\Rutracker_Seeds\04 - Star Spangled Banner.wav
Peak level 41.5 %
Track quality 100.0 %
Test CRC 4BBC539A
Copy CRC 4BBC539A
Accurately ripped (confidence 6) [76DDB4C2]
Copy OK
Track 5
Filename C:\Users\sony\Music\Rutracker_Seeds\05 - Reza.wav
Peak level 74.8 %
Track quality 100.0 %
Test CRC D2285F29
Copy CRC D2285F29
Accurately ripped (confidence 6) [A1BF52C3]
Copy OK
Track 6
Filename C:\Users\sony\Music\Rutracker_Seeds\06 - Honestly.wav
Pre-gap length 0:00:03.00
Peak level 86.3 %
Track quality 100.0 %
Test CRC 2CE86295
Copy CRC 2CE86295
Accurately ripped (confidence 6) [0956A2D7]
Copy OK
Track 7
Filename C:\Users\sony\Music\Rutracker_Seeds\07 - Invitation.wav
Pre-gap length 0:00:01.08
Peak level 75.3 %
Track quality 99.9 %
Test CRC D7F4E826
Copy CRC D7F4E826
Accurately ripped (confidence 6) [6C48B02D]
Copy OK
Track 8
Filename C:\Users\sony\Music\Rutracker_Seeds\08 - Jaco Reggae.wav
Pre-gap length 0:00:04.43
Peak level 97.4 %
Track quality 100.0 %
Test CRC 68C3251B
Copy CRC 68C3251B
Accurately ripped (confidence 6) [B7A52D73]
Copy OK
All tracks accurately ripped
No errors occurred
End of status report
 
CD2: Stuttgart Aria
Exact Audio Copy V0.99 prebeta 5 from 4. May 2009
EAC extraction logfile from 29. June 2011, 16:53
Lagrene Birelli & Jaco Pastorius / Stuttgart Aria
Used drive : Optiarc DVD RW AD-7700H Adapter: 0 ID: 1
Read mode : Secure
Utilize accurate stream : Yes
Defeat audio cache : Yes
Make use of C2 pointers : No
Read offset correction : 48
Overread into Lead-In and Lead-Out : No
Fill up missing offset samples with silence : Yes
Delete leading and trailing silent blocks : No
Null samples used in CRC calculations : Yes
Used interface : Native Win32 interface for Win NT & 2000
Gap handling : Appended to previous track
Used output format : User Defined Encoder
Selected bitrate : 768 kBit/s
Quality : High
Add ID3 tag : No
Command line compressor : C:\Program Files (x86)\Exact Audio Copy\FLAC\FLAC.EXE
Additional command line options : -8 -V -T "ARTIST=%a" -T "TITLE=%t" -T "ALBUM=%g" -T "DATE=%y" -T "TRACKNUMBER=%n" -T "GENRE=%m" -T "COMMENT=EAC FLAC -8" %s
TOC of the extracted CD
Track | Start | Length | Start sector | End sector
---------------------------------------------------------
1 | 0:00.20 | 4:44.00 | 20 | 21319
2 | 4:44.20 | 4:44.00 | 21320 | 42619
3 | 9:28.20 | 7:39.00 | 42620 | 77044
4 | 17:07.20 | 6:02.00 | 77045 | 104194
5 | 23:09.20 | 5:52.00 | 104195 | 130594
6 | 29:01.20 | 8:55.00 | 130595 | 170719
7 | 37:56.20 | 10:08.00 | 170720 | 216319
8 | 48:04.20 | 6:26.13 | 216320 | 245282
Track 1
Filename C:\Users\sony\Music\Rutracker_Seeds\01 - American boy.wav
Pre-gap length 0:00:02.20
Peak level 97.2 %
Track quality 100.0 %
Test CRC F101DC11
Copy CRC F101DC11
Accurately ripped (confidence 4) [DFE38883]
Copy OK
Track 2
Filename C:\Users\sony\Music\Rutracker_Seeds\02 - Donna Lee.wav
Pre-gap length 0:00:03.62
Peak level 89.4 %
Track quality 100.0 %
Test CRC E86B195D
Copy CRC E86B195D
Accurately ripped (confidence 4) [48E7F417]
Copy OK
Track 3
Filename C:\Users\sony\Music\Rutracker_Seeds\03 - Stuttgart Aria I.wav
Pre-gap length 0:00:03.62
Peak level 100.0 %
Track quality 100.0 %
Test CRC 668121FA
Copy CRC 668121FA
Accurately ripped (confidence 4) [48D8FA60]
Copy OK
Track 4
Filename C:\Users\sony\Music\Rutracker_Seeds\04 - Jaco reggae.wav
Pre-gap length 0:00:02.62
Peak level 73.4 %
Track quality 100.0 %
Test CRC EAF0CBE5
Copy CRC EAF0CBE5
Accurately ripped (confidence 4) [9F15CD60]
Copy OK
Track 5
Filename C:\Users\sony\Music\Rutracker_Seeds\05 - The chicken.wav
Pre-gap length 0:00:03.62
Peak level 76.7 %
Track quality 99.9 %
Test CRC 9FE53D35
Copy CRC 9FE53D35
Accurately ripped (confidence 4) [75A1C307]
Copy OK
Track 6
Filename C:\Users\sony\Music\Rutracker_Seeds\06 - Teresa.wav
Pre-gap length 0:00:04.62
Peak level 65.3 %
Track quality 100.0 %
Test CRC A7FD9340
Copy CRC A7FD9340
Accurately ripped (confidence 4) [2A886C51]
Copy OK
Track 7
Filename C:\Users\sony\Music\Rutracker_Seeds\07 - Stuttgart Aria II.wav
Pre-gap length 0:00:03.62
Peak level 100.0 %
Track quality 99.9 %
Test CRC B5BF6B40
Copy CRC B5BF6B40
Accurately ripped (confidence 4) [3352A97B]
Copy OK
Track 8
Filename C:\Users\sony\Music\Rutracker_Seeds\08 - The days of wine and roses.wav
Pre-gap length 0:00:03.62
Peak level 76.7 %
Track quality 99.9 %
Test CRC 9765EBC5
Copy CRC 9765EBC5
Accurately ripped (confidence 3) [FB8E3487]
Copy OK
All tracks accurately ripped
No errors occurred
End of status report
 
Содержание индексной карты (.CUE)
 
CD1: Heavy’n Jazz
REM GENRE Instrumental
REM DATE 1992
REM DISCID 7B100F08
REM COMMENT "ExactAudioCopy v0.99pb5"
PERFORMER "Jaco Pastorius"
TITLE "Heavy'n Jazz"
FILE "01 - Broadman Blues.wav" WAVE
TRACK 01 AUDIO
TITLE "Broadman Blues"
PERFORMER "Jaco Pastorius"
PREGAP 00:00:33
INDEX 01 00:00:00
FILE "02 - Bluma - Smoke On The Water.wav" WAVE
TRACK 02 AUDIO
TITLE "Bluma - Smoke On The Water"
PERFORMER "Jaco Pastorius"
INDEX 01 00:00:00
TRACK 03 AUDIO
TITLE "The Medley - Purple Haze, The Third Stone From The Sun, Teen Town"
PERFORMER "Jaco Pastorius"
INDEX 00 06:46:05
FILE "03 - The Medley - Purple Haze, The Third Stone From The Sun, Teen Town.wav" WAVE
INDEX 01 00:00:00
FILE "04 - Star Spangled Banner.wav" WAVE
TRACK 04 AUDIO
TITLE "Star Spangled Banner"
PERFORMER "Jaco Pastorius"
INDEX 01 00:00:00
FILE "05 - Reza.wav" WAVE
TRACK 05 AUDIO
TITLE "Reza"
PERFORMER "Jaco Pastorius"
INDEX 01 00:00:00
TRACK 06 AUDIO
TITLE "Honestly"
PERFORMER "Jaco Pastorius"
INDEX 00 05:36:25
FILE "06 - Honestly.wav" WAVE
INDEX 01 00:00:00
TRACK 07 AUDIO
TITLE "Invitation"
PERFORMER "Jaco Pastorius"
INDEX 00 06:28:60
FILE "07 - Invitation.wav" WAVE
INDEX 01 00:00:00
TRACK 08 AUDIO
TITLE "Jaco Reggae"
PERFORMER "Jaco Pastorius"
INDEX 00 07:49:22
FILE "08 - Jaco Reggae.wav" WAVE
INDEX 01 00:00:00
 
CD2: Stuttgart Aria
REM GENRE Jazz
REM DATE 1986
REM DISCID 720CC608
REM COMMENT "ExactAudioCopy v0.99pb5"
PERFORMER "Lagrene Birelli & Jaco Pastorius"
TITLE "Stuttgart Aria"
FILE "01 - American boy.wav" WAVE
TRACK 01 AUDIO
TITLE "American boy"
PERFORMER "Lagrene Birelli & Jaco Pastorius"
PREGAP 00:00:20
INDEX 01 00:00:00
TRACK 02 AUDIO
TITLE "Donna Lee"
PERFORMER "Lagrene Birelli & Jaco Pastorius"
INDEX 00 04:40:13
FILE "02 - Donna Lee.wav" WAVE
INDEX 01 00:00:00
TRACK 03 AUDIO
TITLE "Stuttgart Aria I"
PERFORMER "Lagrene Birelli & Jaco Pastorius"
INDEX 00 04:40:13
FILE "03 - Stuttgart Aria I.wav" WAVE
INDEX 01 00:00:00
TRACK 04 AUDIO
TITLE "Jaco reggae"
PERFORMER "Lagrene Birelli & Jaco Pastorius"
INDEX 00 07:36:13
FILE "04 - Jaco reggae.wav" WAVE
INDEX 01 00:00:00
TRACK 05 AUDIO
TITLE "The chicken"
PERFORMER "Lagrene Birelli & Jaco Pastorius"
INDEX 00 05:58:13
FILE "05 - The chicken.wav" WAVE
INDEX 01 00:00:00
TRACK 06 AUDIO
TITLE "Teresa"
PERFORMER "Lagrene Birelli & Jaco Pastorius"
INDEX 00 05:47:13
FILE "06 - Teresa.wav" WAVE
INDEX 01 00:00:00
TRACK 07 AUDIO
TITLE "Stuttgart Aria II"
PERFORMER "Lagrene Birelli & Jaco Pastorius"
INDEX 00 08:51:13
FILE "07 - Stuttgart Aria II.wav" WAVE
INDEX 01 00:00:00
TRACK 08 AUDIO
TITLE "The days of wine and roses"
PERFORMER "Lagrene Birelli & Jaco Pastorius"
INDEX 00 10:04:13
FILE "08 - The days of wine and roses.wav" WAVE
INDEX 01 00:00:00
 
Об исполнителе
Джако Пасториус (настоящее имя: Джон Фрэнсис Энтони Пасториус Третий, англ. John Francis Anthony Pastorius III; 1 декабря 1951 — 21 сентября 1987) — американский джазовый бас-гитарист. Многие считают его величайшим бас-гитаристом, не забывая также и о его композициях и аранжировках. Обладал исключительными навыками импровизации и уникальным звукоизвлечением. В 2011 году признан одним из лучших бас-гитаристов всех времен согласно опросу, проведенному журналом Rolling Stone.
Джако Пасториус родился в Пенсильвании, но вскоре его семья переехала в Форт-Лодердейл (Флорида), где к нему позже и пришла первая слава. Музыкальная карьера Пасториуса началась в 12 лет с игры на ударных, чему его обучил отец. В 13 лет из-за перелома руки и неправильного срастания костей Пасториус оставляет ударные и начинает изучать гитару, саксофон и фортепиано. В 17 лет Пасториуса еще раз прооперировали, и он решил оставить свой выбор на бас-гитаре. В 1974 он начал играть со своим другом Пэтом Мэтини. В 1976 Пасториус был приглашён в группу Weather Report, где он играл с Джо Завинулом и Уэйном Шортером до 1982. Первый альбом Джако Пасториуса вышел в 1976 году. В период с 1980 по 1984 годы Пасториус совершил ряд турне со своим биг-бэндом Word of Mouth.
Джако Пасториус записал также несколько альбомов с певицей Джони Митчелл.
В середине 1980-х годов у Пасториуса начались проблемы с психикой, налицо были симптомы маниакально-депрессивного психоза. Его здоровье ухудшалось из-за употребления наркотиков и алкоголя. В итоге Джако Пасториус потерял уважение респектабельной публики и стал изгоем музыкального бизнеса. В 1987 году в Форт-Лодердейле в клубе Midnight Club одна из ссор с тамошним вышибалой закончилась дракой. Врачи констатировали необратимое поражение головного мозга. Пасториус скончался, не выходя из комы, 21 сентября 1987 года.
В честь великого басиста Майлз Дэвис на альбоме Amandla вместе с Маркусом Миллером записал композицию «Mr. Pastorius».
У Пасториуса есть два сына и дочь. Оба его сына, Дэвид Пасториус и Феликс Пасториус, играют на бас-гитаре. Дочь занимается вокальным джазом.
 
Об альбоме (сборнике)
All Music Guide Review
Jazzpoint released this two-disc set in 1999 as a way to, again, capitalize on the Jaco Pastorius name. Although never intended for release, the music on Broadway Blues & Teresa is, admittedly, exceptionally packaged and features fine sound quality and impressive turns by the trio of Pastorius, Bireli Lagrene, and Peter Lubke.
The recordings are taken from the Stuttgart Aria studio sessions (March 1986) and from Pastorius' four-track home recordings made during his stay in Germany (March-December 1986). Disc one, Broadway Blues (BB), consists of different renditions of compositions that appear on Stuttgart Aria and the live Heavy 'n Jazz. Stuttgart features keys and synth; BB does not, and it is their absence that makes BB such an appealing recording -- it is firmly rooted in jazz fusion, whereas the electric synthetics of Stuttgart create a levity that nearly places the project in the pop-jazz category.
Bireli Lagrene, a superior, rapid-fire improviser, is impressive throughout. "Bluma," the opening cut on BB, finds Lagrene playing Eddie Van Halen-style better than Eddie himself. The piece is reminiscent of Lagrene's fiery "Improv No. 1" on Live in Italy. Pastorius yells, "That's the sh*t right there -- Eddie Van Halen. Turn it up!" A nice touch, Jazzpoint made a good decision in not editing all of Pastorius' voice out of the mix. He talks throughout the recording process, in between many of the tracks, generating a subtle but pleasant intimacy with the listener.
Disc two, titled Teresa: Documentation of a Work Process, features three tracks representing an evolution of Pastorius' "Teresa" composition. Pastorius plays piano and bass, but "Teresa" is akin to a slow waltz, and the composition's evolution becomes rather tedious after awhile. Since the most refined rendition of "Teresa" appears on the first disc, the second CD seems more like a supplemental bonus that really doesn't strengthen the two-disc project. Broadway Blues & Teresa is presented in impressive digipak packaging, available only as a German import. ~ David Ross Smith, All Music Guide
 
Персоналии
JACO PASTORIUS electric bass, piano, vocal
BIRELI LAGRENE electric guitar
VLADISLAV SENDECKI keyboards, synth
JAN JANKEJE synth bass
PETER LÜBKE drums
SERGE BRINGOLF drums and percussion
Приватный:
Нет (DHT включён)
Размер:
710.37 Мб (744,874,423 байт) » файлов: 40
Участники:
0 раздают, 0 качают (0 участников всего)
Внешние участники:
--- [ Обновить ]
For power users only: no seeders - write to support@pro-jazz.com. Для power user: нет сидеров - пишите на support@pro-jazz.com.
06:11
121
Нет комментариев. Ваш будет первым!