Поиск

(Jazz-Fusion,Piano) Will Boulware/feat.Richard Bona,Billy Kilson,Eric Alexander/ - Summertime - 2007, APE (image+.cue) lossless

Треклист:
Will Boulware/feat.Richard Bona,Billy Kilson,Eric Alexander/ / Summertime
Жанр: Jazz-Fusion,Piano
Страна-производитель диска: Japan
Год издания диска: 2007
Издатель (лейбл): Village Records
Страна: Japan
Аудио кодек: APE (*.ape)
Тип рипа: image+.cue
Битрейт аудио: lossless
Продолжительность: 00:50:24
Источник (релизер): Рип из личного архива.
Наличие сканов в содержимом раздачи: да
Треклист:
1.Slow Down
2.Till
3.On Green Dolphin Street
4.Thumbs
5.Moment's Notice
6.Big Band
7.E.S.P.
8.Who's Blues
9.Summertime
 
Лог создания рипа
Exact Audio Copy V0.99 prebeta 4 from 23. January 2008
Отчёт EAC об извлечении, выполненном 6. октября 2010, 21:47
Will Boulware / Summertime
Дисковод: _NEC DVD_RW ND-2510A Adapter: 1 ID: 0
Режим чтения : Достоверность
Использование точного потока : Да
Отключение кэша аудио : Да
Использование указателей C2 : Нет
Коррекция смещения при чтении : 48
Способность читать области Lead-in и Lead-out : Нет
Заполнение пропущенных сэмплов тишиной : Да
Удаление блоков с тишиной в начале и конце : Нет
При вычислениях CRC использовались нулевые сэмплы : Да
Интерфейс : Встроенный Win32-интерфейс для Win NT/2000
Выходной формат : Внутренние WAV-операции
Формат сэмплов : 44.100 Гц; 16 бит; стерео
TOC извлечённого CD
Трек | Старт | Длительность | Начальный сектор | Конечный сектор
---------------------------------------------------------------------
1 | 0:00.00 | 6:05.13 | 0 | 27387
2 | 6:05.13 | 4:15.12 | 27388 | 46524
3 | 10:20.25 | 7:30.49 | 46525 | 80323
4 | 17:50.74 | 5:13.55 | 80324 | 103853
5 | 23:04.54 | 5:32.06 | 103854 | 128759
6 | 28:36.60 | 3:59.08 | 128760 | 146692
7 | 32:35.68 | 6:01.67 | 146693 | 173834
8 | 38:37.60 | 5:48.32 | 173835 | 199966
9 | 44:26.17 | 5:58.11 | 199967 | 226827
Характеристики диапазона извлечения и сообщения об ошибках
Выбранный диапазон
Имя файла E:\ПРОЕКТ\Will Boulware-Ssummertime 2007\Will Boulware - Summertime.wav
Пиковый уровень 90.5 %
Качество диапазона 100.0 %
CRC теста A121BB91
CRC копии A121BB91
Копирование... OK
Ошибок не произошло
AccurateRip: сводка
Трек 1 точность не определена (достоверность 3) [B909A692], AccurateRip вернул [65A24D48]
Трек 2 точность не определена (достоверность 3) [806E3453], AccurateRip вернул [55125621]
Трек 3 точность не определена (достоверность 3) [3750F2B0], AccurateRip вернул [931E4080]
Трек 4 точность не определена (достоверность 3) [6490D9AE], AccurateRip вернул [32C738C6]
Трек 5 точность не определена (достоверность 3) [40B9A5B7], AccurateRip вернул [EA1FFBEB]
Трек 6 точность не определена (достоверность 3) [6C3D381B], AccurateRip вернул [16C3E6DB]
Трек 7 точность не определена (достоверность 3) [880B93D3], AccurateRip вернул [E0CF6EB1]
Трек 8 точность не определена (достоверность 3) [2EB69B32], AccurateRip вернул [5ABFC7FE]
Трек 9 точность не определена (достоверность 3) [763469CE], AccurateRip вернул [4050B3F8]
Ни один трек не прошёл проверки на точность
В вашей базе может быть иной вариант штамповки диска
Конец отчёта
Состав
Will Boulware-piano
Richard Bona-bass
Billy Kilson-drums
Eric Alexander-tenor saxophone
Any questions - support@pro-jazz.com
To become a power user - read FAQ.
21:49
454
Нет комментариев. Ваш будет первым!