Вы используете незарегистрированную версию компонента "Вкладки"!

Поиск

(Jazz Fusion, Jazz Blues) Larry Carlton & Robben Ford - Unplugged - 2013, FLAC (tracks+.cue), lossless

(Jazz Fusion, Jazz Blues) Larry Carlton & Robben Ford - Unplugged - 2013, FLAC (tracks+.cue), lossless
Треклист:
♦ Larry Carlton & Robben Ford - Unplugged ♦
Жанр: Jazz Fusion, Jazz Blues
Год издания: 2013
Издатель (лейбл): 335 Records
Аудиокодек: FLAC (*.flac)
Тип рипа: tracks+.cue
Битрейт аудио: lossless
Продолжительность: 00:57:44
Источник (релизер): jlgt
Наличие сканов в содержимом раздачи: да
Треклист:
01. NM Blues 08 [07:32]
02. That Road [08:55]
03. Monty [07:09]
04. Cold Gold [07:04]
05. Hand In Hand With The Blues [04:58]
06. Amen AC [06:33]
07. I Put A Spell On You [06:24]
08. Rio Samba [09:05]
 
Лог создания рипа
Exact Audio Copy V1.0 beta 3 from 29. August 2011
EAC extraction logfile from 8. May 2013, 21:37
Larry Carlton & Robben Ford / Unplugged
Used drive : PLEXTOR DVDR PX-L890SA Adapter: 2 ID: 1
Read mode : Secure
Utilize accurate stream : Yes
Defeat audio cache : Yes
Make use of C2 pointers : No
Read offset correction : 6
Overread into Lead-In and Lead-Out : No
Fill up missing offset samples with silence : Yes
Delete leading and trailing silent blocks : No
Null samples used in CRC calculations : Yes
Used interface : Native Win32 interface for Win NT & 2000
Gap handling : Appended to previous track
Used output format : User Defined Encoder
Selected bitrate : 256 kBit/s
Quality : High
Add ID3 tag : No
Command line compressor : C:\Program Files (x86)\Exact Audio Copy\FLAC\FLAC.EXE
Additional command line options : -8 -V -T "ARTIST=%artist%" -T "TITLE=%title%" -T "ALBUM=%albumtitle%" -T "DATE=%year%" -T "TRACKNUMBER=%tracknr%" -T "TOTALTRACKS=%numtracks%" -T "GENRE=%genre%" -T "ALBUMARTIST=%albumartist%" -T "ALBUM ARTIST=%albumartist%" -T "COMMENT=EAC Secure Mode, Test & Copy, AccurateRip, FLAC -8" %source%
TOC of the extracted CD
Track | Start | Length | Start sector | End sector
---------------------------------------------------------
1 | 0:00.00 | 7:32.74 | 0 | 33973
2 | 7:32.74 | 8:55.35 | 33974 | 74133
3 | 16:28.34 | 7:09.61 | 74134 | 106369
4 | 23:38.20 | 7:04.51 | 106370 | 138220
5 | 30:42.71 | 4:58.39 | 138221 | 160609
6 | 35:41.35 | 6:33.36 | 160610 | 190120
7 | 42:14.71 | 6:24.48 | 190121 | 218968
8 | 48:39.44 | 9:05.04 | 218969 | 259847
Track 1
Filename F:\Flac Rips\01 - NM Blues 08.wav
Pre-gap length 0:00:02.00
Peak level 97.1 %
Extraction speed 3.9 X
Track quality 100.0 %
Test CRC 20C9EF50
Copy CRC 20C9EF50
Track not present in AccurateRip database
Copy OK
Track 2
Filename F:\Flac Rips\02 - That Road.wav
Peak level 98.9 %
Extraction speed 4.8 X
Track quality 100.0 %
Test CRC A89E9680
Copy CRC A89E9680
Track not present in AccurateRip database
Copy OK
Track 3
Filename F:\Flac Rips\03 - Monty.wav
Peak level 98.3 %
Extraction speed 5.3 X
Track quality 100.0 %
Test CRC A7429C20
Copy CRC A7429C20
Track not present in AccurateRip database
Copy OK
Track 4
Filename F:\Flac Rips\04 - Cold Gold.wav
Peak level 98.3 %
Extraction speed 5.8 X
Track quality 100.0 %
Test CRC 15F8092F
Copy CRC 15F8092F
Track not present in AccurateRip database
Copy OK
Track 5
Filename F:\Flac Rips\05 - Hand In Hand With The Blues.wav
Peak level 98.8 %
Extraction speed 6.0 X
Track quality 100.0 %
Test CRC BE34CABC
Copy CRC BE34CABC
Track not present in AccurateRip database
Copy OK
Track 6
Filename F:\Flac Rips\06 - Amen AC.wav
Peak level 97.1 %
Extraction speed 6.5 X
Track quality 100.0 %
Test CRC 198D9384
Copy CRC 198D9384
Track not present in AccurateRip database
Copy OK
Track 7
Filename F:\Flac Rips\07 - I Put A Spell On You.wav
Peak level 98.6 %
Extraction speed 6.8 X
Track quality 100.0 %
Test CRC 4ED34734
Copy CRC 4ED34734
Track not present in AccurateRip database
Copy OK
Track 8
Filename F:\Flac Rips\08 - Rio Samba.wav
Peak level 97.4 %
Extraction speed 7.4 X
Track quality 100.0 %
Test CRC 898B5B15
Copy CRC 898B5B15
Track not present in AccurateRip database
Copy OK
None of the tracks are present in the AccurateRip database
No errors occurred
End of status report
==== Log checksum BB314441317D0E604C979718683F17A0B5329DA7D342F613B3FA8D4883DA70A5 ====
 
Содержание индексной карты (.CUE)
REM GENRE Jazz
REM DATE 2013
REM DISCID 610D8808
REM COMMENT "ExactAudioCopy v1.0b3"
PERFORMER "Larry Carlton & Robben Ford"
TITLE "Unplugged"
FILE "01 - NM Blues 08.wav" WAVE
TRACK 01 AUDIO
TITLE "NM Blues 08"
PERFORMER "Larry Carlton & Robben Ford"
FLAGS DCP
INDEX 01 00:00:00
FILE "02 - That Road.wav" WAVE
TRACK 02 AUDIO
TITLE "That Road"
PERFORMER "Larry Carlton & Robben Ford"
FLAGS DCP
INDEX 01 00:00:00
FILE "03 - Monty.wav" WAVE
TRACK 03 AUDIO
TITLE "Monty"
PERFORMER "Larry Carlton & Robben Ford"
FLAGS DCP
INDEX 01 00:00:00
FILE "04 - Cold Gold.wav" WAVE
TRACK 04 AUDIO
TITLE "Cold Gold"
PERFORMER "Larry Carlton & Robben Ford"
FLAGS DCP
INDEX 01 00:00:00
FILE "05 - Hand In Hand With The Blues.wav" WAVE
TRACK 05 AUDIO
TITLE "Hand In Hand With The Blues"
PERFORMER "Larry Carlton & Robben Ford"
FLAGS DCP
INDEX 01 00:00:00
FILE "06 - Amen AC.wav" WAVE
TRACK 06 AUDIO
TITLE "Amen AC"
PERFORMER "Larry Carlton & Robben Ford"
FLAGS DCP
INDEX 01 00:00:00
FILE "07 - I Put A Spell On You.wav" WAVE
TRACK 07 AUDIO
TITLE "I Put A Spell On You"
PERFORMER "Larry Carlton & Robben Ford"
FLAGS DCP
INDEX 01 00:00:00
FILE "08 - Rio Samba.wav" WAVE
TRACK 08 AUDIO
TITLE "Rio Samba"
PERFORMER "Larry Carlton & Robben Ford"
FLAGS DCP
INDEX 01 00:00:00
 
Состав
Personnel:
Larry Carton - guitar
Robben Ford - guitar, vocals
Fifi Chayeb - bass
Claude Salmieri - drums
Any questions - support@pro-jazz.com. Есть вопросы - support@pro-jazz.com
21:30
297
Нет комментариев. Ваш будет первым!