Поиск

(Jazz Fusion) Jaco Pastorius, Pat Metheny, Paul Bley, Bruce Ditmas - Jaco - 1974, FLAC (tracks+.cue), lossless

(Jazz Fusion) Jaco Pastorius, Pat Metheny, Paul Bley, Bruce Ditmas - Jaco - 1974, FLAC (tracks+.cue), lossless
Треклист:
•Jaco Pastorius, Pat Metheny, Paul Bley, Bruce Ditmas - Jaco•
Жанр: Jazz Fusion
Год издания: 1974
Издатель (лейбл): Jazz Door
Номер по каталогу: JD 1286
Аудиокодек: FLAC (*.flac)
Тип рипа: tracks+.cue
Битрейт аудио: lossless
Продолжительность: 00:36:39
Источник (релизер): tiburon
Наличие сканов в содержимом раздачи: да
Треклист:
01. Vashkar [09:55]
02. Poconos [01:00]
03. Donkey [06:28]
04. Vampira [07:14]
05. Overtoned [01:04]
06. Jaco [03:45]
07. Batterie [05:12]
08. King Korn [00:28]
09. Blood [01:29]
 
Лог создания рипа
Exact Audio Copy V1.0 beta 3 from 29. August 2011
EAC extraction logfile from 18. February 2013, 0:01
Pastorius, Metheny, Bley, Ditmas / Jaco
Used drive : HL-DT-STDVDRAM GH20NS10 Adapter: 2 ID: 1
Read mode : Secure
Utilize accurate stream : Yes
Defeat audio cache : Yes
Make use of C2 pointers : No
Read offset correction : 667
Overread into Lead-In and Lead-Out : No
Fill up missing offset samples with silence : Yes
Delete leading and trailing silent blocks : No
Null samples used in CRC calculations : Yes
Used interface : Native Win32 interface for Win NT & 2000
Gap handling : Appended to previous track
Used output format : User Defined Encoder
Selected bitrate : 1024 kBit/s
Quality : High
Add ID3 tag : No
Command line compressor : C:\Program Files\Exact Audio Copy\Flac\flac.exe
Additional command line options : -8 -V -T "ARTIST=%artist%" -T "TITLE=%title%" -T "ALBUM=%albumtitle%" -T "DATE=%year%" -T "TRACKNUMBER=%tracknr%" -T "TOTALTRACKS=%numtracks%" -T "GENRE=%genre%" -T "ALBUMARTIST=%albumartist%" -T "ALBUM ARTIST=%albumartist%" -T "COMMENT=EAC Secure Mode, Test & Copy, AccurateRip, FLAC -8" %source%
TOC of the extracted CD
Track | Start | Length | Start sector | End sector
---------------------------------------------------------
1 | 0:00.12 | 9:55.33 | 12 | 44669
2 | 9:55.45 | 1:00.65 | 44670 | 49234
3 | 10:56.35 | 6:28.05 | 49235 | 78339
4 | 17:24.40 | 7:14.35 | 78340 | 110924
5 | 24:39.00 | 1:04.55 | 110925 | 115779
6 | 25:43.55 | 3:45.02 | 115780 | 132656
7 | 29:28.57 | 5:12.05 | 132657 | 156061
8 | 34:40.62 | 0:28.50 | 156062 | 158211
9 | 35:09.37 | 1:29.58 | 158212 | 164944
Track 1
Filename D:\Pastorius, Metheny, Bley, Ditmas - Jaco (1974) [FLAC]\01 - Vashkar.wav
Pre-gap length 0:00:02.12
Peak level 96.7 %
Extraction speed 5.4 X
Track quality 100.0 %
Test CRC EFEF7204
Copy CRC EFEF7204
Accurately ripped (confidence 4) [C3A8AB91] (AR v1)
Copy OK
Track 2
Filename D:\Pastorius, Metheny, Bley, Ditmas - Jaco (1974) [FLAC]\02 - Poconos.wav
Peak level 50.2 %
Extraction speed 3.9 X
Track quality 100.0 %
Test CRC 06571B09
Copy CRC 06571B09
Accurately ripped (confidence 4) [24FB80DE] (AR v1)
Copy OK
Track 3
Filename D:\Pastorius, Metheny, Bley, Ditmas - Jaco (1974) [FLAC]\03 - Donkey.wav
Peak level 96.7 %
Extraction speed 5.3 X
Track quality 99.9 %
Test CRC A99886FD
Copy CRC A99886FD
Accurately ripped (confidence 4) [3E47F39B] (AR v1)
Copy OK
Track 4
Filename D:\Pastorius, Metheny, Bley, Ditmas - Jaco (1974) [FLAC]\04 - Vampira.wav
Peak level 96.7 %
Extraction speed 6.2 X
Track quality 100.0 %
Test CRC D3E9AC31
Copy CRC D3E9AC31
Accurately ripped (confidence 4) [D2EABA06] (AR v1)
Copy OK
Track 5
Filename D:\Pastorius, Metheny, Bley, Ditmas - Jaco (1974) [FLAC]\05 - Overtoned.wav
Peak level 84.9 %
Extraction speed 2.7 X
Track quality 99.8 %
Test CRC 29B4E963
Copy CRC 29B4E963
Accurately ripped (confidence 4) [E34479AB] (AR v1)
Copy OK
Track 6
Filename D:\Pastorius, Metheny, Bley, Ditmas - Jaco (1974) [FLAC]\06 - Jaco.wav
Peak level 92.5 %
Extraction speed 6.0 X
Track quality 100.0 %
Test CRC 1674F106
Copy CRC 1674F106
Accurately ripped (confidence 4) [DD0FDD44] (AR v1)
Copy OK
Track 7
Filename D:\Pastorius, Metheny, Bley, Ditmas - Jaco (1974) [FLAC]\07 - Batterie.wav
Peak level 96.7 %
Extraction speed 6.0 X
Track quality 99.9 %
Test CRC 1EED8AA9
Copy CRC 1EED8AA9
Accurately ripped (confidence 4) [74F35E33] (AR v1)
Copy OK
Track 8
Filename D:\Pastorius, Metheny, Bley, Ditmas - Jaco (1974) [FLAC]\08 - King Korn.wav
Peak level 96.7 %
Extraction speed 3.1 X
Track quality 100.0 %
Test CRC C027035E
Copy CRC C027035E
Accurately ripped (confidence 4) [F46CC950] (AR v1)
Copy OK
Track 9
Filename D:\Pastorius, Metheny, Bley, Ditmas - Jaco (1974) [FLAC]\09 - Blood.wav
Peak level 96.7 %
Extraction speed 5.1 X
Track quality 100.0 %
Test CRC B2697AE3
Copy CRC B2697AE3
Accurately ripped (confidence 4) [9D83DFDE] (AR v1)
Copy OK
All tracks accurately ripped
No errors occurred
End of status report
==== Log checksum A3EC9814667618BDD8774B99591DA855FBCE8E1482376C4997F1DA7E6B111578 ====
 
Содержание индексной карты (.CUE)
REM GENRE Fusion
REM DATE 1974
REM DISCID 72089709
REM COMMENT "ExactAudioCopy v1.0b3"
PERFORMER "Pastorius, Metheny, Bley, Ditmas"
TITLE "Jaco"
FILE "01 - Vashkar.wav" WAVE
TRACK 01 AUDIO
TITLE "Vashkar"
PERFORMER "Pastorius, Metheny, Bley, Ditmas"
PREGAP 00:00:12
INDEX 01 00:00:00
FILE "02 - Poconos.wav" WAVE
TRACK 02 AUDIO
TITLE "Poconos"
PERFORMER "Pastorius, Metheny, Bley, Ditmas"
INDEX 01 00:00:00
FILE "03 - Donkey.wav" WAVE
TRACK 03 AUDIO
TITLE "Donkey"
PERFORMER "Pastorius, Metheny, Bley, Ditmas"
INDEX 01 00:00:00
FILE "04 - Vampira.wav" WAVE
TRACK 04 AUDIO
TITLE "Vampira"
PERFORMER "Pastorius, Metheny, Bley, Ditmas"
INDEX 01 00:00:00
FILE "05 - Overtoned.wav" WAVE
TRACK 05 AUDIO
TITLE "Overtoned"
PERFORMER "Pastorius, Metheny, Bley, Ditmas"
INDEX 01 00:00:00
FILE "06 - Jaco.wav" WAVE
TRACK 06 AUDIO
TITLE "Jaco"
PERFORMER "Pastorius, Metheny, Bley, Ditmas"
INDEX 01 00:00:00
FILE "07 - Batterie.wav" WAVE
TRACK 07 AUDIO
TITLE "Batterie"
PERFORMER "Pastorius, Metheny, Bley, Ditmas"
INDEX 01 00:00:00
FILE "08 - King Korn.wav" WAVE
TRACK 08 AUDIO
TITLE "King Korn"
PERFORMER "Pastorius, Metheny, Bley, Ditmas"
INDEX 01 00:00:00
FILE "09 - Blood.wav" WAVE
TRACK 09 AUDIO
TITLE "Blood"
PERFORMER "Pastorius, Metheny, Bley, Ditmas"
INDEX 01 00:00:00
 
Состав
Personnel:
Jaco Pastorius - electric bass
Pat Metheny - electric guitar
Drums - Bruce Ditmas
Paul Bley - electric piano
Bruce Ditmas - drums
Приватный:
Нет (DHT включён)
Размер:
250.90 Мб (263,087,414 байт) » файлов: 19
Участники:
0 раздают, 0 качают (0 участников всего)
Внешние участники:
14 раздают, 5 качают (19 участников всего) [ Обновить ]
For power users only: no seeders - write to support@pro-jazz.com. Для power user: нет сидеров - пишите на support@pro-jazz.com.
19:54
150
Нет комментариев. Ваш будет первым!