Поиск

(Jazz, Fusion, Hard Bop) Terumasa Hino, John Scofield - May Dance - 1977, FLAC (image+.cue) losseless

(Jazz, Fusion, Hard Bop) Terumasa Hino, John Scofield - May Dance - 1977, FLAC (image+.cue) losseless
Terumasa Hino, John Scofield - May Dance
Жанр: Jazz, Fusion, Hard Bop
Год выпуска диска: 1977
Производитель диска: Россия
Аудио кодек: FLAC
Тип рипа: image+.cue
Продолжительность: 44:13
Трэклист:
1. Wind Blows Your Skin
2. Wild Lady
3. Big Celebration
4. Free Land
5. Moss on the Rock
6. Lovin' May
Состав:
Terumasa Hino - Trumpet
John Scofield - Guitar
Ron Carter - Bass
Tony Williams - Drums
 
EAC Log
Exact Audio Copy V0.99 prebeta 5 from 4. May 2009
EAC extraction logfile from 2. September 2009, 18:02
Terumasa Hino & John Scofield / May Dance
Used drive : Optiarc DVD RW AD-7543A Adapter: 2 ID: 0
Read mode : Secure
Utilize accurate stream : Yes
Defeat audio cache : Yes
Make use of C2 pointers : No
Read offset correction : 48
Overread into Lead-In and Lead-Out : No
Fill up missing offset samples with silence : Yes
Delete leading and trailing silent blocks : No
Null samples used in CRC calculations : Yes
Used interface : Native Win32 interface for Win NT & 2000
Used output format : Internal WAV Routines
Sample format : 44.100 Hz; 16 Bit; Stereo
TOC of the extracted CD
Track | Start | Length | Start sector | End sector
---------------------------------------------------------
1 | 0:00.00 | 7:16.05 | 0 | 32704
2 | 7:16.05 | 8:45.70 | 32705 | 72149
3 | 16:02.00 | 8:16.27 | 72150 | 109376
4 | 24:18.27 | 9:29.43 | 109377 | 152094
5 | 33:47.70 | 6:31.05 | 152095 | 181424
6 | 40:19.00 | 3:54.47 | 181425 | 199021
Range status and errors
Selected range
Filename Z:\home\igo\eac\CDImage.wav
Peak level 100.0 %
Range quality 100.0 %
Copy CRC 7EC937C3
Copy OK
No errors occurred
End of status report
 
auCDtect
auCDtect: CD records authenticity detector, version 0.8.2
Copyright (c) 2004 Oleg Berngardt. All rights reserved.
Copyright (c) 2004 Alexander Djourik. All rights reserved.
------------------------------------------------------------
Processing file: [CDImage.wav]
Detected average hi-boundary frequency: 2.071363e+04 Hz
Detected average lo-boundary frequency: 1.483112e+04 Hz
Detected average hi-cut frequency: 2.191421e+04 Hz
Detected average lo-cut frequency: 1.789777e+04 Hz
Maximum probablis boundary frequency: 2.189100e+04 Hz
Coefficient of nonlinearity of a phase: 8.301881e-02
First order smothness: 3.881883e-01
Second order smothness: 7.404281e-01
------------------------------------------------------------
This track looks like CDDA with probability 100%
------------------------------------------------------------
Final Conclusion:
------------------------------------------------------------
These tracks looks like CDDA with probability 100%
 
Спектр
!!! DownBeat (Самый авторитетный джазовый журнал, 12 номеров)[PDF] !!!
Музыкой делиться приятно! Но хочется большего. Делитесь своими впечатлениями!!!!
06:05
744
Нет комментариев. Ваш будет первым!