Поиск

(Jazz / Fusion, Easy Listening, Latin Jazz) Wayne Shorter - Native Dancer (Reissue, 1990) - 1975, APE (image+.cue), lossless

(Jazz / Fusion, Easy Listening, Latin Jazz) Wayne Shorter - Native Dancer (Reissue, 1990) - 1975, APE (image+.cue), lossless
Треклист:
Wayne Shorter - Native Dancer (Reissue, 1990)
Жанр: Jazz
Стиль: Fusion, Easy Listening, Latin Jazz
Год выпуска диска: 1975
Производитель диска: USA
Label: CBS
Аудио кодек: APE
Тип рипа: image+.cue
Битрейт аудио: lossless
Продолжительность: 43:52
Трэклист:
1 Ponta De Areia (5:14)
2 Beauty And The Beast (5:12)
3 Tarde (5:46)
4 Miracle Of The Fishes (4:46)
5 Diana (3:01)
6 From The Lonely Afternoons (3:13)
7 Ana Maria (5:07)
8 Lilia (7:01)
9 Joanna's Theme (4:21)
Доп. информация: Acoustic Guitar - David Amaro (tracks: 4, 6, 7, 9) , Milton Nascimento (tracks: 3, 4, 6, 8)
Bass - Dave McDaniel (tracks: 1, 3, 4, 5, 6, 7, 9) , Jay Graydon (tracks: 2) , Wagner Tiso (tracks: 8)
Drums - Roberto Silva (tracks: 1, 2, 3, 4, 6, 7, 8)
Electric Piano - Herbie Hancock (tracks: 3) , Wagner Tiso (tracks: 1, 2, 4, 6, 9) , Wayne Shorter (tracks: 8)
Guitar - David Amaro (tracks: 3) , Jay Graydon (tracks: 1)
Organ - Wagner Tiso (tracks: 1, 3, 4, 7)
Percussion - Airto Moreira (tracks: 2, 4, 5, 7, 8) , Roberto Silva (tracks: 5, 9)
Piano - Herbie Hancock (tracks: 1, 2, 7, 9) , Wayne Shorter (tracks: 5, 6, 7)
Producer - Jim Price , Nedra Neal
Soprano Sax - Wayne Shorter (tracks: 1, 2, 4, 8, 9)
Tenor Sax - Wayne Shorter (tracks: 3, 4, 5, 6, 7)
Vocals - Milton Nascimento (tracks: 1, 3, 4, 6, 8)
 
скрытый текст
Exact Audio Copy V0.99 prebeta 4 from 23. January 2008
Отчёт EAC об извлечении, выполненном 1. марта 2009, 16:40
Wayne Shorter / Native Dancer (Remaster)
Дисковод: TSSTcorpCDDVDW SH-S202H Adapter: 1 ID: 0
Режим чтения : Достоверность
Использование точного потока : Да
Отключение кэша аудио : Да
Использование указателей C2 : Нет
Коррекция смещения при чтении : 6
Способность читать области Lead-in и Lead-out : Нет
Заполнение пропущенных сэмплов тишиной : Да
Удаление блоков с тишиной в начале и конце : Нет
При вычислениях CRC использовались нулевые сэмплы : Да
Интерфейс : Установленный внешний ASPI-интерфейс
Выходной формат : Внутренние WAV-операции
Формат сэмплов : 44.100 Гц; 16 бит; стерео
TOC извлечённого CD
Трек | Старт | Длительность | Начальный сектор | Конечный сектор
---------------------------------------------------------------------
1 | 0:00.00 | 5:18.02 | 0 | 23851
2 | 5:18.02 | 5:04.43 | 23852 | 46694
3 | 10:22.45 | 5:49.45 | 46695 | 72914
4 | 16:12.15 | 4:48.35 | 72915 | 94549
5 | 21:00.50 | 3:04.20 | 94550 | 108369
6 | 24:04.70 | 3:15.52 | 108370 | 123046
7 | 27:20.47 | 5:10.38 | 123047 | 146334
8 | 32:31.10 | 7:03.37 | 146335 | 178096
9 | 39:34.47 | 4:17.62 | 178097 | 197433
Характеристики диапазона извлечения и сообщения об ошибках
Выбранный диапазон
Имя файла H:\===\Wayne Shorter - Native Dancer (Remaster).wav
Пиковый уровень 79.8 %
Качество диапазона 100.0 %
CRC копии 6C945154
Копирование... OK
Ошибок не произошло
Конец отчёта
06:10
336
Нет комментариев. Ваш будет первым!