Поиск

(Jazz, Fusion) Dieter Ilg, Mike Stern, Bob Berg, Randy Brecker, Jim Beard, Peter Erskine - Summerhill - 1991, FLAC (image+.cue) lossless

Треклист:
Dieter Ilg, Mike Stern, Bob Berg, Randy Brecker, Jim Beard, Peter Erskine / Summerhill
Жанр: Jazz, Fusion
Страна-производитель диска: USA
Год издания диска: 1991
Издатель (лейбл): Lipstick Record
Номер по каталогу: LIP 890062
Страна: USA
Аудио кодек: FLAC (*.flac)
Тип рипа: image+.cue
Битрейт аудио: lossless
Продолжительность: 44:38
Источник (релизер): Original CD (ViccerMan)
Наличие сканов в содержимом раздачи: да
Треклист:
01. It's getting better [06:40]
02. Springfever [05:47]
03. The shadows of the fall [07:34]
04. Summerhill [09:24]
05. All childrens love song [06:00]
06. Somersault [04:09]
07. Under the skin of the earth [05:35]
 
Лог создания рипа
Exact Audio Copy V0.99 prebeta 4 from 23. January 2008
Отчёт EAC об извлечении, выполненном 23. марта 2011, 11:44
Dieter Ilg, Mike Stern, Bob Berg, Randy Brecker, Jim Beard, Peter Erskine / Summerhill
Дисковод: Optiarc DVD RW AD-5240S Adapter: 5 ID: 1
Режим чтения : Достоверность
Использование точного потока : Да
Отключение кэша аудио : Да
Использование указателей C2 : Нет
Коррекция смещения при чтении : 48
Способность читать области Lead-in и Lead-out : Нет
Заполнение пропущенных сэмплов тишиной : Да
Удаление блоков с тишиной в начале и конце : Нет
При вычислениях CRC использовались нулевые сэмплы : Да
Интерфейс : Встроенный Win32-интерфейс для Win NT/2000
Выходной формат : Пользовательский кодировщик
Выбранный битрейт : 128 kBit/s
Качество : Высокий
Добавление ID3-тэга : Нет
Утилита сжатия : C:\Progs\EAC-0.99pb4\Flac\flac.exe
Дополнительные параметры : -8 -V -T "ARTIST=%a" -T "TITLE=%t" -T "ALBUM=%g" -T "DATE=%y" -T "TRACKNUMBER=%n" -T "GENRE=%m" -T "COMMENT=EAC FLAC -8" %s
TOC извлечённого CD
Трек | Старт | Длительность | Начальный сектор | Конечный сектор
---------------------------------------------------------------------
1 | 0:00.00 | 6:27.25 | 0 | 29049
2 | 6:27.25 | 5:48.10 | 29050 | 55159
3 | 12:15.35 | 7:33.37 | 55160 | 89171
4 | 19:48.72 | 9:14.70 | 89172 | 130791
5 | 29:03.67 | 5:54.10 | 130792 | 157351
6 | 34:58.02 | 4:04.53 | 157352 | 175704
7 | 39:02.55 | 5:36.10 | 175705 | 200914
Характеристики диапазона извлечения и сообщения об ошибках
Выбранный диапазон
Имя файла D:\Dieter Ilg, Mike Stern, Bob Berg, Randy Brecker, Jim Beard, Peter Erskine - Summerhill\Dieter Ilg, Mike Stern, Bob Berg, Randy Brecker, Jim
Beard, Peter Erskine - Summerhill.wav
Пиковый уровень 100.0 %
Качество диапазона 100.0 %
CRC теста F46E8855
CRC копии F46E8855
Копирование... OK
Ошибок не произошло
Конец отчёта
 
Содержание индексной карты (.CUE)
REM GENRE Fusion
REM DATE 1991
REM DISCID 530A7607
REM COMMENT "ExactAudioCopy v0.99pb4"
PERFORMER "Dieter Ilg, Mike Stern, Bob Berg, Randy Brecker, Jim Beard, Peter Erskine"
TITLE "Summerhill"
FILE "Dieter Ilg, Mike Stern, Bob Berg, Randy Brecker, Jim Beard, Peter Erskine - Summerhill.flac" WAVE
TRACK 01 AUDIO
TITLE "It's getting better"
PERFORMER "Dieter Ilg, Mike Stern, Bob Berg, Randy Brecker, Jim Beard, Peter Erskine"
INDEX 01 00:00:00
TRACK 02 AUDIO
TITLE "Springfever"
PERFORMER "Dieter Ilg, Mike Stern, Bob Berg, Randy Brecker, Jim Beard, Peter Erskine"
INDEX 01 06:27:25
TRACK 03 AUDIO
TITLE "The shadows of the fall"
PERFORMER "Dieter Ilg, Mike Stern, Bob Berg, Randy Brecker, Jim Beard, Peter Erskine"
INDEX 01 12:15:35
TRACK 04 AUDIO
TITLE "Summerhill"
PERFORMER "Dieter Ilg, Mike Stern, Bob Berg, Randy Brecker, Jim Beard, Peter Erskine"
INDEX 01 19:48:72
TRACK 05 AUDIO
TITLE "All childrens love song"
PERFORMER "Dieter Ilg, Mike Stern, Bob Berg, Randy Brecker, Jim Beard, Peter Erskine"
INDEX 01 29:03:67
TRACK 06 AUDIO
TITLE "Somersault"
PERFORMER "Dieter Ilg, Mike Stern, Bob Berg, Randy Brecker, Jim Beard, Peter Erskine"
INDEX 01 34:58:02
TRACK 07 AUDIO
TITLE "Under the skin of the earth"
PERFORMER "Dieter Ilg, Mike Stern, Bob Berg, Randy Brecker, Jim Beard, Peter Erskine"
INDEX 01 39:02:55
Доп. информация:
 
Об исполнителе (группе)
Dieter ILg — Популярный европейский контрабасист-сайдмен, композитор, аранжировщик.
http://www.jazz.com/encyclopedia/ilg-dieter-josef
 
Состав
Personnel:
Mike Stern (g)
Bob Berg (sax)
Randy Brecker (tp) (1-4,67)
Jim Beard (key)
Dieter Ilg (b)
Peter Erskine (ds)
По всем вопросам пишите личное сообщение пользователю M0p94ok.
02:44
444
Нет комментариев. Ваш будет первым!