Поиск

(Jazz Fusion) [CD] Alain Caron - Multiple Faces - 2013, FLAC (tracks+.cue), lossless

(Jazz Fusion) [CD] Alain Caron - Multiple Faces - 2013, FLAC (tracks+.cue), lossless
Треклист:
♦ Alain Caron - Multiple Faces ♦
Жанр: Jazz Fusion
Носитель: CD
Год издания: 2013
Издатель (лейбл): Disques Norac
Номер по каталогу: NORCD-4253
Аудиокодек: FLAC (*.flac)
Тип рипа: tracks+.cue
Битрейт аудио: lossless
Продолжительность: 00:51:47
Источник (релизер): tiburon
Наличие сканов в содержимом раздачи: да
Треклист:
01. Right After 4 [06:53]
02. Sfing [06:22]
03. The Lost Foot [06:24]
04. Jazz Pool [07:28]
05. Slick Shift [05:50]
06. Canuba [05:47]
07. Hurry Up And Wait [06:49]
08. Then And After [06:11]
 
Лог создания рипа
Exact Audio Copy V1.0 beta 3 from 29. August 2011
EAC extraction logfile from 14. January 2014, 18:08
Alain Caron / Multiple Faces
Used drive : HL-DT-STDVDRAM GH20NS10 Adapter: 2 ID: 1
Read mode : Secure
Utilize accurate stream : Yes
Defeat audio cache : Yes
Make use of C2 pointers : No
Read offset correction : 667
Overread into Lead-In and Lead-Out : No
Fill up missing offset samples with silence : Yes
Delete leading and trailing silent blocks : No
Null samples used in CRC calculations : Yes
Used interface : Native Win32 interface for Win NT & 2000
Gap handling : Appended to previous track
Used output format : User Defined Encoder
Selected bitrate : 1024 kBit/s
Quality : High
Add ID3 tag : No
Command line compressor : C:\Program Files\Exact Audio Copy\Flac\flac.exe
Additional command line options : -8 -V -T "ARTIST=%artist%" -T "TITLE=%title%" -T "ALBUM=%albumtitle%" -T "DATE=%year%" -T "TRACKNUMBER=%tracknr%" -T "TOTALTRACKS=%numtracks%" -T "GENRE=%genre%" -T "ALBUMARTIST=%albumartist%" -T "ALBUM ARTIST=%albumartist%" -T "COMMENT=EAC Secure Mode, Test & Copy, AccurateRip, FLAC -8" %source%
TOC of the extracted CD
Track | Start | Length | Start sector | End sector
---------------------------------------------------------
1 | 0:00.00 | 6:53.20 | 0 | 30994
2 | 6:53.20 | 6:22.47 | 30995 | 59691
3 | 13:15.67 | 6:24.13 | 59692 | 88504
4 | 19:40.05 | 7:28.07 | 88505 | 122111
5 | 27:08.12 | 5:50.21 | 122112 | 148382
6 | 32:58.33 | 5:47.36 | 148383 | 174443
7 | 38:45.69 | 6:49.18 | 174444 | 205136
8 | 45:35.12 | 6:11.64 | 205137 | 233025
Track 1
Filename D:\Alain Caron - Multiple Faces (2013) [FLAC]\01 - Right After 4.wav
Pre-gap length 0:00:02.00
Peak level 97.0 %
Extraction speed 5.1 X
Track quality 100.0 %
Test CRC 69183DE6
Copy CRC 69183DE6
Track not present in AccurateRip database
Copy OK
Track 2
Filename D:\Alain Caron - Multiple Faces (2013) [FLAC]\02 - Sfing.wav
Peak level 96.7 %
Extraction speed 4.6 X
Track quality 100.0 %
Test CRC 85E4DDCA
Copy CRC 85E4DDCA
Track not present in AccurateRip database
Copy OK
Track 3
Filename D:\Alain Caron - Multiple Faces (2013) [FLAC]\03 - The Lost Foot.wav
Peak level 96.0 %
Extraction speed 5.6 X
Track quality 100.0 %
Test CRC 2C92FA2A
Copy CRC 2C92FA2A
Track not present in AccurateRip database
Copy OK
Track 4
Filename D:\Alain Caron - Multiple Faces (2013) [FLAC]\04 - Jazz Pool.wav
Peak level 96.1 %
Extraction speed 6.9 X
Track quality 100.0 %
Test CRC C04C5F4F
Copy CRC C04C5F4F
Track not present in AccurateRip database
Copy OK
Track 5
Filename D:\Alain Caron - Multiple Faces (2013) [FLAC]\05 - Slick Shift.wav
Peak level 97.5 %
Extraction speed 6.3 X
Track quality 99.9 %
Test CRC C7B7866A
Copy CRC C7B7866A
Track not present in AccurateRip database
Copy OK
Track 6
Filename D:\Alain Caron - Multiple Faces (2013) [FLAC]\06 - Canuba.wav
Peak level 96.3 %
Extraction speed 7.1 X
Track quality 100.0 %
Test CRC 2ABDD29D
Copy CRC 2ABDD29D
Track not present in AccurateRip database
Copy OK
Track 7
Filename D:\Alain Caron - Multiple Faces (2013) [FLAC]\07 - Hurry Up And Wait.wav
Peak level 97.1 %
Extraction speed 7.6 X
Track quality 100.0 %
Test CRC 3B3C6CBE
Copy CRC 3B3C6CBE
Track not present in AccurateRip database
Copy OK
Track 8
Filename D:\Alain Caron - Multiple Faces (2013) [FLAC]\08 - Then And After.wav
Peak level 95.4 %
Extraction speed 5.3 X
Track quality 99.9 %
Test CRC 4A4E0FB3
Copy CRC 4A4E0FB3
Track not present in AccurateRip database
Copy OK
None of the tracks are present in the AccurateRip database
No errors occurred
End of status report
==== Log checksum 1B1BE465583954430BB7A3045C57BC75F2E5919720FD08E767C90EEA1D2917E3 ====
 
Содержание индексной карты (.CUE)
REM GENRE Fusion
REM DATE 2013
REM DISCID 6C0C2308
REM COMMENT "ExactAudioCopy v1.0b3"
PERFORMER "Alain Caron"
TITLE "Multiple Faces"
FILE "01 - Right After 4.wav" WAVE
TRACK 01 AUDIO
TITLE "Right After 4"
PERFORMER "Alain Caron"
INDEX 01 00:00:00
FILE "02 - Sfing.wav" WAVE
TRACK 02 AUDIO
TITLE "Sfing"
PERFORMER "Alain Caron"
INDEX 01 00:00:00
FILE "03 - The Lost Foot.wav" WAVE
TRACK 03 AUDIO
TITLE "The Lost Foot"
PERFORMER "Alain Caron"
INDEX 01 00:00:00
FILE "04 - Jazz Pool.wav" WAVE
TRACK 04 AUDIO
TITLE "Jazz Pool"
PERFORMER "Alain Caron"
INDEX 01 00:00:00
FILE "05 - Slick Shift.wav" WAVE
TRACK 05 AUDIO
TITLE "Slick Shift"
PERFORMER "Alain Caron"
INDEX 01 00:00:00
FILE "06 - Canuba.wav" WAVE
TRACK 06 AUDIO
TITLE "Canuba"
PERFORMER "Alain Caron"
INDEX 01 00:00:00
FILE "07 - Hurry Up And Wait.wav" WAVE
TRACK 07 AUDIO
TITLE "Hurry Up And Wait"
PERFORMER "Alain Caron"
INDEX 01 00:00:00
FILE "08 - Then And After.wav" WAVE
TRACK 08 AUDIO
TITLE "Then And After"
PERFORMER "Alain Caron"
INDEX 01 00:00:00
 
Состав
Alain Caron - bass
Damien Schmitt - drums
Pierre Cote - guitar
John Roney - piano, keyboards
Jocelyn Couture - trumpet
Ron Di Lauro - trumpet
Jean-Pierre Zanella - alto sax
David Bellemare - tenor sax
Alexandre Cote - baritone sax
Download available for power users only.
23:48
420
Нет комментариев. Ваш будет первым!