Поиск

(Jazz Fusion, Bossa Nova) Eumir Deodato - Percepcao - 1972 (Remastered 2002), FLAC (tracks+.cue), lossless

(Jazz Fusion, Bossa Nova) Eumir Deodato - Percepcao - 1972 (Remastered 2002), FLAC (tracks+.cue), lossless
Треклист:
Eumir Deodato
Percepção (1972)
Жанр: Jazz Fusion, Bossa Nova
Дата выпуска альбома: 1972
Дата выпуска диска: 2002
Производитель диска:
London/Odeon (LLB-1080) (с) 1972
EMI Brazil 541555 2 (с) 2002
Страна: Brazil
Формат: Studio Album, Remastered
Аудио кодек: FLAC
Тип рипа: tracks+.cue
Битрейт аудио: lossless
Продолжительность: 24:33
Tracklist:
1. Dia de Verão (2:25)
2. A Grande Caçada (1:51)
3. O Sonho de Judy (3:16)
4. Adeus Amigo (4:15)
5. Bebê (2:28)
6. Neve (3:32)
7. Barcarole (4:05)
8. Serendipity (2:41)
Рип c оригинала, автор рипа Flabber.
 
EAC log
Exact Audio Copy V0.99 prebeta 5 from 4. May 2009
EAC extraction logfile from 20. October 2009, 23:52
Eumir Deodato / Percepcao
Used drive : TDK CDRW5200B Adapter: 1 ID: 1
Read mode : Secure
Utilize accurate stream : Yes
Defeat audio cache : Yes
Make use of C2 pointers : No
Read offset correction : 6
Overread into Lead-In and Lead-Out : No
Fill up missing offset samples with silence : Yes
Delete leading and trailing silent blocks : No
Null samples used in CRC calculations : Yes
Used interface : Native Win32 interface for Win NT & 2000
Gap handling : Appended to previous track
Used output format : User Defined Encoder
Selected bitrate : 768 kBit/s
Quality : High
Add ID3 tag : No
Command line compressor : C:\Program Files\Exact Audio Copy\FLAC\FLAC.EXE
Additional command line options : -8 -V -T "ARTIST=%a" -T "TITLE=%t" -T "ALBUM=%g" -T "DATE=%y" -
T "TRACKNUMBER=%n" -T "TOTALTRACKS=%x" -T "GENRE=%m" -T "ALBUM ARTIST=%v" -T "ALBUMARTIST=%v" -
T "COMMENT=EAC V0.99 prebeta 4, Secure Mode, Test & Copy, Accurat
TOC of the extracted CD
Track | Start | Length | Start sector | End sector
---------------------------------------------------------
1 | 0:00.00 | 2:25.17 | 0 | 10891
2 | 2:25.17 | 1:51.18 | 10892 | 19234
3 | 4:16.35 | 3:16.32 | 19235 | 33966
4 | 7:32.67 | 4:15.33 | 33967 | 53124
5 | 11:48.25 | 2:28.65 | 53125 | 64289
6 | 14:17.15 | 3:32.17 | 64290 | 80206
7 | 17:49.32 | 4:05.05 | 80207 | 98586
8 | 21:54.37 | 2:41.30 | 98587 | 110691
Track 1
Filename C:\EAC\01 - Dia de Verao.wav
Pre-gap length 0:00:02.00
Peak level 91.7 %
Track quality 100.0 %
Test CRC E5AB5A17
Copy CRC E5AB5A17
Track not present in AccurateRip database
Copy OK
Track 2
Filename C:\EAC\02 - A Grande Cacada.wav
Peak level 96.1 %
Track quality 99.9 %
Test CRC AF1629B6
Copy CRC AF1629B6
Track not present in AccurateRip database
Copy OK
Track 3
Filename C:\EAC\03 - O Sonho de Judy.wav
Peak level 97.9 %
Track quality 100.0 %
Test CRC B211B1C4
Copy CRC B211B1C4
Track not present in AccurateRip database
Copy OK
Track 4
Filename C:\EAC\04 - Adeus Amigo.wav
Peak level 100.0 %
Track quality 100.0 %
Test CRC 2A1729A5
Copy CRC 2A1729A5
Track not present in AccurateRip database
Copy OK
Track 5
Filename C:\EAC\05 - Bebe.wav
Peak level 95.8 %
Track quality 100.0 %
Test CRC 57CF1713
Copy CRC 57CF1713
Track not present in AccurateRip database
Copy OK
Track 6
Filename C:\EAC\06 - Neve.wav
Peak level 93.7 %
Track quality 100.0 %
Test CRC 92611FD8
Copy CRC 92611FD8
Track not present in AccurateRip database
Copy OK
Track 7
Filename C:\EAC\07 - Barcarole.wav
Peak level 94.4 %
Track quality 99.9 %
Test CRC 11E29918
Copy CRC 11E29918
Track not present in AccurateRip database
Copy OK
Track 8
Filename C:\EAC\08 - Serendipity.wav
Peak level 88.5 %
Track quality 99.9 %
Test CRC 1FDF8C98
Copy CRC 1FDF8C98
Track not present in AccurateRip database
Copy OK
None of the tracks are present in the AccurateRip database
No errors occurred
End of status report
 
*.cue
REM GENRE Instrumental
REM DATE 1972
REM DISCID 5C05C308
REM COMMENT "ExactAudioCopy v0.99pb5"
PERFORMER "Eumir Deodato"
TITLE "Percepcao"
FILE "01 - Dia de Verao.wav" WAVE
TRACK 01 AUDIO
TITLE "Dia de Verao"
PERFORMER "Eumir Deodato"
INDEX 01 00:00:00
FILE "02 - A Grande Cacada.wav" WAVE
TRACK 02 AUDIO
TITLE "A Grande Cacada"
PERFORMER "Eumir Deodato"
INDEX 01 00:00:00
FILE "03 - O Sonho de Judy.wav" WAVE
TRACK 03 AUDIO
TITLE "O Sonho de Judy"
PERFORMER "Eumir Deodato"
INDEX 01 00:00:00
FILE "04 - Adeus Amigo.wav" WAVE
TRACK 04 AUDIO
TITLE "Adeus Amigo"
PERFORMER "Eumir Deodato"
INDEX 01 00:00:00
FILE "05 - Bebe.wav" WAVE
TRACK 05 AUDIO
TITLE "Bebe"
PERFORMER "Eumir Deodato"
INDEX 01 00:00:00
FILE "06 - Neve.wav" WAVE
TRACK 06 AUDIO
TITLE "Neve"
PERFORMER "Eumir Deodato"
INDEX 01 00:00:00
FILE "07 - Barcarole.wav" WAVE
TRACK 07 AUDIO
TITLE "Barcarole"
PERFORMER "Eumir Deodato"
INDEX 01 00:00:00
FILE "08 - Serendipity.wav" WAVE
TRACK 08 AUDIO
TITLE "Serendipity"
PERFORMER "Eumir Deodato"
INDEX 01 00:00:00
 
Audiochecker’s log
AUDIOCHECKER v2.0 beta (build 457) - by Dester - opdester@freemail.hu
~~~~~~~~~~~~~~~~~~~~~~~~~~~~~~~~~~
Started at: понедельник, 29. 03. 2010. - 16:36.14
8 files found
1 -===- F:\My Documents\Music\Deodato\Eumir Deodato - Percepcao (1972)\01 - Dia de Verao.flac
Extracted successfully
Conclusion: this track is CDDA with probability 100%
Tempfile successfully deleted.
2 -===- F:\My Documents\Music\Deodato\Eumir Deodato - Percepcao (1972)\02 - A Grande Cacada.flac
Extracted successfully
Conclusion: this track is CDDA with probability 100%
Tempfile successfully deleted.
3 -===- F:\My Documents\Music\Deodato\Eumir Deodato - Percepcao (1972)\03 - O Sonho de Judy.flac
Extracted successfully
Conclusion: this track is CDDA with probability 100%
Tempfile successfully deleted.
4 -===- F:\My Documents\Music\Deodato\Eumir Deodato - Percepcao (1972)\04 - Adeus Amigo.flac
Extracted successfully
Conclusion: this track is CDDA with probability 100%
Tempfile successfully deleted.
5 -===- F:\My Documents\Music\Deodato\Eumir Deodato - Percepcao (1972)\05 - Bebe.flac
Extracted successfully
Conclusion: this track is CDDA with probability 100%
Tempfile successfully deleted.
6 -===- F:\My Documents\Music\Deodato\Eumir Deodato - Percepcao (1972)\06 - Neve.flac
Extracted successfully
Conclusion: this track is CDDA with probability 100%
Tempfile successfully deleted.
7 -===- F:\My Documents\Music\Deodato\Eumir Deodato - Percepcao (1972)\07 - Barcarole.flac
Extracted successfully
Conclusion: this track is CDDA with probability 100%
Tempfile successfully deleted.
8 -===- F:\My Documents\Music\Deodato\Eumir Deodato - Percepcao (1972)\08 - Serendipity.flac
Extracted successfully
Conclusion: this track is CDDA with probability 100%
Tempfile successfully deleted.
Finished at: понедельник, 29. 03. 2010. - 16:47.00 (operation time: 0:10.45)

14:51
280
Нет комментариев. Ваш будет первым!