Поиск

(Jazz-Funk, Vocal Jazz) [CD] Joanne Grauer - Joanne Grauer - 1974 (2008 Japan Edition), FLAC (tracks+.cue), lossless

(Jazz-Funk, Vocal Jazz) [CD] Joanne Grauer - Joanne Grauer - 1974 (2008 Japan Edition), FLAC (tracks+.cue), lossless
Треклист:
Joanne Grauer - Joanne Grauer
Жанр: Jazz-Funk, Vocal Jazz
Носитель: CD
Страна-производитель диска (релиза): Япония
Год издания: 1974 (2008)
Издатель (лейбл): Primo
Номер по каталогу: PRIMO-02
Аудиокодек: FLAC (*.flac)
Тип рипа: tracks+.cue
Битрейт аудио: lossless
Продолжительность: 34:01
Источник (релизер): MimiSoul (what)
Наличие сканов в содержимом раздачи: сетевые
Треклист:
01. Jesus Is My Friend (5:08)
02. Inside Outside (4:49)
03. Mystical Lady (4:52)
04. Frog Child (11:37)
05. Who I Am (3:08)
06. Waltz for Bill (Dedicated to Bill Evans) (4:27)
Состав:
Joanne Grauer - electric piano, acoustic piano, vocals
Ray Neapolitan - bass
Steve Schaeffer - drums, percussion
 
Лог создания рипа
Exact Audio Copy V1.0 beta 3 from 29. August 2011
EAC extraction logfile from 3. April 2015, 21:01
Joanne Grauer / Joanne Grauer
Used drive : MATSHITADVD-RAM UJ-850S Adapter: 0 ID: 0
Read mode : Secure
Utilize accurate stream : Yes
Defeat audio cache : Yes
Make use of C2 pointers : No
Read offset correction : 102
Overread into Lead-In and Lead-Out : No
Fill up missing offset samples with silence : Yes
Delete leading and trailing silent blocks : No
Null samples used in CRC calculations : Yes
Used interface : Native Win32 interface for Win NT & 2000
Gap handling : Appended to previous track
Used output format : User Defined Encoder
Selected bitrate : 1024 kBit/s
Quality : High
Add ID3 tag : No
Command line compressor : C:\Program Files\Exact Audio Copy\Flac\flac.exe
Additional command line options : -8 -V -T "ARTIST=%artist%" -T "TITLE=%title%" -T "ALBUM=%albumtitle%" -T "DATE=%year%" -T "TRACKNUMBER=%tracknr%" -T "GENRE=%genre%" -T "PERFORMER=%albuminterpret%" -T "COMPOSER=%composer%" %haslyrics%--tag-from-file=LYRICS="%lyricsfile%"%haslyrics% -T "ALBUMARTIST=%albumartist%" -T "DISCNUMBER=%cdnumber%" -T "TOTALDISCS=%totalcds%" -T "TOTALTRACKS=%numtracks%" -T "COMMENT=%comment%" %source% -o %dest%
TOC of the extracted CD
Track | Start | Length | Start sector | End sector
---------------------------------------------------------
1 | 0:00.00 | 5:08.31 | 0 | 23130
2 | 5:08.31 | 4:49.10 | 23131 | 44815
3 | 9:57.41 | 4:51.62 | 44816 | 66702
4 | 14:49.28 | 11:36.52 | 66703 | 118954
5 | 26:26.05 | 3:07.67 | 118955 | 133046
6 | 29:33.72 | 4:27.17 | 133047 | 153088
Track 1
Filename C:\Documents and Settings\Mimi\Mes documents\[UPLOADS]\Joanne Grauer - Joanne Grauer (1974) [FLAC]\01 Jesus Is My Friend.wav
Pre-gap length 0:00:02.00
Peak level 98.8 %
Extraction speed 1.4 X
Track quality 99.9 %
Test CRC BAB4E58A
Copy CRC BAB4E58A
Accurately ripped (confidence 2) [B3690C79] (AR v1)
Copy OK
Track 2
Filename C:\Documents and Settings\Mimi\Mes documents\[UPLOADS]\Joanne Grauer - Joanne Grauer (1974) [FLAC]\02 Inside Outside.wav
Peak level 91.2 %
Extraction speed 1.6 X
Track quality 99.9 %
Test CRC 76248328
Copy CRC 76248328
Accurately ripped (confidence 2) [F1361C14] (AR v1)
Copy OK
Track 3
Filename C:\Documents and Settings\Mimi\Mes documents\[UPLOADS]\Joanne Grauer - Joanne Grauer (1974) [FLAC]\03 Mystical Lady.wav
Peak level 95.5 %
Extraction speed 1.7 X
Track quality 99.9 %
Test CRC 8C2F6C07
Copy CRC 8C2F6C07
Accurately ripped (confidence 2) [146A9DA5] (AR v1)
Copy OK
Track 4
Filename C:\Documents and Settings\Mimi\Mes documents\[UPLOADS]\Joanne Grauer - Joanne Grauer (1974) [FLAC]\04 Frog Child.wav
Peak level 93.3 %
Extraction speed 2.3 X
Track quality 100.0 %
Test CRC 23436AB1
Copy CRC 23436AB1
Accurately ripped (confidence 2) [95CF1FB6] (AR v1)
Copy OK
Track 5
Filename C:\Documents and Settings\Mimi\Mes documents\[UPLOADS]\Joanne Grauer - Joanne Grauer (1974) [FLAC]\05 Who I am.wav
Peak level 98.8 %
Extraction speed 1.9 X
Track quality 99.9 %
Test CRC B0D78B2A
Copy CRC B0D78B2A
Accurately ripped (confidence 2) [7A7E16A2] (AR v1)
Copy OK
Track 6
Filename C:\Documents and Settings\Mimi\Mes documents\[UPLOADS]\Joanne Grauer - Joanne Grauer (1974) [FLAC]\06 Waltz For Bill.wav
Peak level 96.9 %
Extraction speed 2.2 X
Track quality 99.9 %
Test CRC 06F9D062
Copy CRC 06F9D062
Accurately ripped (confidence 2) [62D65ED8] (AR v1)
Copy OK
All tracks accurately ripped
No errors occurred
End of status report
---- CUETools DB Plugin V2.1.3
[CTDB TOCID: nflZyBvsxyUFc6KKtjvfRyExYqY-] found, Submit result: already submitted
[c28825c0] (2/2) Accurately ripped
==== Log checksum 45FA70DB14BEF9C46DEE8BC64BD321D1C0A3AB4CC7B210BDF078EA7C86BFB607 ====
 
Содержание индексной карты (.CUE)
REM GENRE Jazz
REM DATE 1974
REM DISCID 5907F906
REM COMMENT "ExactAudioCopy v1.0b3"
PERFORMER "Joanne Grauer"
TITLE "Joanne Grauer"
FILE "01 - Jesus Is My Friend.wav" WAVE
TRACK 01 AUDIO
TITLE "Jesus Is My Friend"
PERFORMER "Joanne Grauer"
INDEX 01 00:00:00
FILE "02 - Inside Outside.wav" WAVE
TRACK 02 AUDIO
TITLE "Inside Outside"
PERFORMER "Joanne Grauer"
INDEX 01 00:00:00
FILE "03 - Mystical Lady.wav" WAVE
TRACK 03 AUDIO
TITLE "Mystical Lady"
PERFORMER "Joanne Grauer"
INDEX 01 00:00:00
FILE "04 - Frog Child.wav" WAVE
TRACK 04 AUDIO
TITLE "Frog Child"
PERFORMER "Joanne Grauer"
INDEX 01 00:00:00
FILE "05 - Who I Am.wav" WAVE
TRACK 05 AUDIO
TITLE "Who I Am"
PERFORMER "Joanne Grauer"
INDEX 01 00:00:00
FILE "06 - Waltz for Bill (Dedicated to Bill Evans).wav" WAVE
TRACK 06 AUDIO
TITLE "Waltz for Bill (Dedicated to Bill Evans)"
PERFORMER "Joanne Grauer"
INDEX 01 00:00:00
 
Отчет CUETools
[CUETools log; Date: 24.09.2015 1:51:08; Version: 2.1.5]
[CTDB TOCID: nflZyBvsxyUFc6KKtjvfRyExYqY-] found.
Track | CTDB Status
1 | (2/2) Accurately ripped
2 | (2/2) Accurately ripped
3 | (2/2) Accurately ripped
4 | (2/2) Accurately ripped
5 | (2/2) Accurately ripped
6 | (2/2) Accurately ripped
[AccurateRip ID: 00083c5d-002c6fcb-5907f906] found.
Track [ CRC | V2 ] Status
01 [b3690c79|6c1871b2] (2+2/4) Accurately ripped
02 [f1361c14|42449fdf] (2+2/4) Accurately ripped
03 [146a9da5|336fe8fb] (2+2/4) Accurately ripped
04 [95cf1fb6|9174cf8c] (2+2/4) Accurately ripped
05 [7a7e16a2|bd3555b6] (2+2/4) Accurately ripped
06 [62d65ed8|91fdbc0b] (2+2/4) Accurately ripped
Track Peak [ CRC32 ] [W/O NULL] [ LOG ]
-- 98,8 [2101440B] [E805003A]
01 98,8 [BAB4E58A] [55398E09] CRC32
02 91,2 [76248328] [688E69E4] CRC32
03 95,5 [8C2F6C07] [E4FBD09A] CRC32
04 93,3 [23436AB1] [DE7CD8E6] CRC32
05 98,8 [B0D78B2A] [B359EC04] CRC32
06 96,9 [06F9D062] [DC62861D] CRC32
Приватный:
Нет (DHT включён)
Размер:
193.13 Мб (202,508,296 байт) » файлов: 14
Участники:
0 раздают, 0 качают (0 участников всего)
Внешние участники:
5 раздают, 1 качают (6 участников всего) [ Обновить ]
Есть вопросы - пишите личное сообщение пользователю M0p94ok.
07:59
75
Нет комментариев. Ваш будет первым!