Поиск

(Jazz Funk, Soundtrack, Easy Listening) [CD] Galt MacDermot - Shapes Of Rhythm & Woman Is Sweeter 1966 / 1969 - 2001, FLAC (tracks+.cue), lossless

(Jazz Funk, Soundtrack, Easy Listening) [CD] Galt MacDermot - Shapes Of Rhythm & Woman Is Sweeter 1966 / 1969 - 2001, FLAC (tracks+.cue), lossless
Треклист:
Galt MacDermot
Shapes Of Rhythm & Woman Is Sweeter Жанр: Jazz Funk, Easy Listening
Носитель: CD
Год издания: 2001
Издатель (лейбл): Kilmarnock
Номер по каталогу: KIL2000-6
Страна исполнителя (группы): Canada
Аудиокодек: FLAC (*.flac)
Тип рипа: tracks+.cue
Битрейт аудио: lossless
Продолжительность: 01:10:21
Источник (релизер): rockasteria.blogspot.ru
Наличие сканов в содержимом раздачи: да
Треклист:
Shapes Of Rhythm
01. Lady, You Look Good To Me
02. Farmland
03. Coffee Cold
04. Marsh Gas
05. If Our Love Is Real
06. Mouse Roared
07. Tender Meeting
08. M'Babam
09. Field Of Sorrow
10. Alive In Dar-Es-Salaam
11. Spanish Nights
12. I'm Through With You
Woman Is Sweeter
13. Tango
14. Fragments 1A
15. Fragments 1B
16. Fragments II
17. Bass
18. Cathedral
19. Woman Is Sweeter
20. Moving Clothes
21. Bathtub
22. Radio Rock
23. Princess Gika
24. Merry-Go-Round
25. Space
26. Perfume Bottles
BONUS TRACK
27. Coffee Cold (with Fergus MacRoy)
 
Лог создания рипа
EAC extraction logfile from 7. June 2007, 5:03 for CD
Galt MacDermot / Shapes Of Rhythm/Woman Is Sweeter
Used drive : LITE-ON DVDRW SOHW-1633S Adapter: 0 ID: 0
Read mode : Secure with NO C2, accurate stream, disable cache
Read offset correction : 12
Overread into Lead-In and Lead-Out : No
Used output format : Internal WAV Routines
44.100 Hz; 16 Bit; Stereo
Other options :
Fill up missing offset samples with silence : Yes
Delete leading and trailing silent blocks : No
Installed external ASPI interface
Track 1
Filename D:\FLAC\Galt MacDermot - Shapes Of Rhythm, Woman Is Sweeter (1966, 1969) [FLAC]\01 - Lady, You Look Good To Me.wav
Pre-gap length 0:00:02.00
Peak level 97.7 %
Track quality 99.9 %
Test CRC B00ADEC3
Copy CRC B00ADEC3
Copy OK
Track 2
Filename D:\FLAC\Galt MacDermot - Shapes Of Rhythm, Woman Is Sweeter (1966, 1969) [FLAC]\02 - Farmland.wav
Pre-gap length 0:00:03.57
Peak level 97.7 %
Track quality 100.0 %
Test CRC 75E9CECA
Copy CRC 75E9CECA
Copy OK
Track 3
Filename D:\FLAC\Galt MacDermot - Shapes Of Rhythm, Woman Is Sweeter (1966, 1969) [FLAC]\03 - Coffee Cold.wav
Pre-gap length 0:00:03.08
Peak level 97.7 %
Track quality 100.0 %
Test CRC BE063CEA
Copy CRC BE063CEA
Copy OK
Track 4
Filename D:\FLAC\Galt MacDermot - Shapes Of Rhythm, Woman Is Sweeter (1966, 1969) [FLAC]\04 - Marsh Gas.wav
Pre-gap length 0:00:03.12
Peak level 97.7 %
Track quality 100.0 %
Test CRC 9E6A922D
Copy CRC 9E6A922D
Copy OK
Track 5
Filename D:\FLAC\Galt MacDermot - Shapes Of Rhythm, Woman Is Sweeter (1966, 1969) [FLAC]\05 - If Our Love Is Real.wav
Pre-gap length 0:00:03.32
Peak level 89.3 %
Track quality 100.0 %
Test CRC 46D38F83
Copy CRC 46D38F83
Copy OK
Track 6
Filename D:\FLAC\Galt MacDermot - Shapes Of Rhythm, Woman Is Sweeter (1966, 1969) [FLAC]\06 - Mouse Roared.wav
Pre-gap length 0:00:03.90
Peak level 97.7 %
Track quality 100.0 %
Test CRC 01660761
Copy CRC 01660761
Copy OK
Track 7
Filename D:\FLAC\Galt MacDermot - Shapes Of Rhythm, Woman Is Sweeter (1966, 1969) [FLAC]\07 - Tender Meeting.wav
Pre-gap length 0:00:02.72
Peak level 97.7 %
Track quality 100.0 %
Test CRC 1C2AD8C5
Copy CRC 1C2AD8C5
Copy OK
Track 8
Filename D:\FLAC\Galt MacDermot - Shapes Of Rhythm, Woman Is Sweeter (1966, 1969) [FLAC]\08 - M'Babam.wav
Pre-gap length 0:00:03.52
Peak level 97.7 %
Track quality 100.0 %
Test CRC 492C1BF7
Copy CRC 492C1BF7
Copy OK
Track 9
Filename D:\FLAC\Galt MacDermot - Shapes Of Rhythm, Woman Is Sweeter (1966, 1969) [FLAC]\09 - Field Of Sorrow.wav
Pre-gap length 0:00:03.10
Peak level 97.7 %
Track quality 99.9 %
Test CRC 6D7A4B1A
Copy CRC 6D7A4B1A
Copy OK
Track 10
Filename D:\FLAC\Galt MacDermot - Shapes Of Rhythm, Woman Is Sweeter (1966, 1969) [FLAC]\10 - Alive In Dar-Es-Salaam.wav
Pre-gap length 0:00:03.28
Peak level 97.7 %
Track quality 100.0 %
Test CRC 594BDF50
Copy CRC 594BDF50
Copy OK
Track 11
Filename D:\FLAC\Galt MacDermot - Shapes Of Rhythm, Woman Is Sweeter (1966, 1969) [FLAC]\11 - Spanish Nights.wav
Pre-gap length 0:00:02.90
Peak level 92.8 %
Track quality 99.9 %
Test CRC 85F935B3
Copy CRC 85F935B3
Copy OK
Track 12
Filename D:\FLAC\Galt MacDermot - Shapes Of Rhythm, Woman Is Sweeter (1966, 1969) [FLAC]\12 - I'm Through With You.wav
Pre-gap length 0:00:02.81
Peak level 97.7 %
Track quality 100.0 %
Test CRC 6510C215
Copy CRC 6510C215
Copy OK
Track 13
Filename D:\FLAC\Galt MacDermot - Shapes Of Rhythm, Woman Is Sweeter (1966, 1969) [FLAC]\13 - Tango.wav
Pre-gap length 0:00:02.58
Peak level 97.7 %
Track quality 100.0 %
Test CRC 0FB58E0D
Copy CRC 0FB58E0D
Copy OK
Track 14
Filename D:\FLAC\Galt MacDermot - Shapes Of Rhythm, Woman Is Sweeter (1966, 1969) [FLAC]\14 - Fragments 1A.wav
Pre-gap length 0:00:00.94
Peak level 97.7 %
Track quality 100.0 %
Test CRC 70302E50
Copy CRC 70302E50
Copy OK
Track 15
Filename D:\FLAC\Galt MacDermot - Shapes Of Rhythm, Woman Is Sweeter (1966, 1969) [FLAC]\15 - Fragments 1B.wav
Pre-gap length 0:00:02.36
Peak level 97.7 %
Track quality 100.0 %
Test CRC CD61ED45
Copy CRC CD61ED45
Copy OK
Track 16
Filename D:\FLAC\Galt MacDermot - Shapes Of Rhythm, Woman Is Sweeter (1966, 1969) [FLAC]\16 - Fragments II.wav
Pre-gap length 0:00:01.62
Peak level 95.3 %
Track quality 100.0 %
Test CRC 8B890348
Copy CRC 8B890348
Copy OK
Track 17
Filename D:\FLAC\Galt MacDermot - Shapes Of Rhythm, Woman Is Sweeter (1966, 1969) [FLAC]\17 - Bass.wav
Pre-gap length 0:00:01.33
Peak level 83.0 %
Track quality 100.0 %
Test CRC 49EDD2A7
Copy CRC 49EDD2A7
Copy OK
Track 18
Filename D:\FLAC\Galt MacDermot - Shapes Of Rhythm, Woman Is Sweeter (1966, 1969) [FLAC]\18 - Cathedral.wav
Pre-gap length 0:00:01.90
Peak level 92.9 %
Track quality 100.0 %
Test CRC 5C16F1B7
Copy CRC 5C16F1B7
Copy OK
Track 19
Filename D:\FLAC\Galt MacDermot - Shapes Of Rhythm, Woman Is Sweeter (1966, 1969) [FLAC]\19 - Woman Is Sweeter.wav
Pre-gap length 0:00:01.97
Peak level 97.7 %
Track quality 100.0 %
Test CRC 3C16C717
Copy CRC 3C16C717
Copy OK
Track 20
Filename D:\FLAC\Galt MacDermot - Shapes Of Rhythm, Woman Is Sweeter (1966, 1969) [FLAC]\20 - Moving Clothes.wav
Pre-gap length 0:00:01.98
Peak level 97.7 %
Track quality 100.0 %
Test CRC 9A82999D
Copy CRC 9A82999D
Copy OK
Track 21
Filename D:\FLAC\Galt MacDermot - Shapes Of Rhythm, Woman Is Sweeter (1966, 1969) [FLAC]\21 - Bathtub.wav
Pre-gap length 0:00:01.81
Peak level 97.7 %
Track quality 100.0 %
Test CRC 6C75B754
Copy CRC 6C75B754
Copy OK
Track 22
Filename D:\FLAC\Galt MacDermot - Shapes Of Rhythm, Woman Is Sweeter (1966, 1969) [FLAC]\22 - Radio Rock.wav
Pre-gap length 0:00:02.88
Peak level 97.7 %
Track quality 100.0 %
Test CRC C8C3A13F
Copy CRC C8C3A13F
Copy OK
Track 23
Filename D:\FLAC\Galt MacDermot - Shapes Of Rhythm, Woman Is Sweeter (1966, 1969) [FLAC]\23 - Princess Gika.wav
Pre-gap length 0:00:03.88
Peak level 97.7 %
Track quality 100.0 %
Test CRC 5B0C02AF
Copy CRC 5B0C02AF
Copy OK
Track 24
Filename D:\FLAC\Galt MacDermot - Shapes Of Rhythm, Woman Is Sweeter (1966, 1969) [FLAC]\24 - Merry-Go-Round.wav
Pre-gap length 0:00:03.24
Peak level 97.7 %
Track quality 100.0 %
Test CRC C465724F
Copy CRC C465724F
Copy OK
Track 25
Filename D:\FLAC\Galt MacDermot - Shapes Of Rhythm, Woman Is Sweeter (1966, 1969) [FLAC]\25 - Space.wav
Pre-gap length 0:00:03.44
Peak level 97.7 %
Track quality 99.9 %
Test CRC 287E8FAB
Copy CRC 287E8FAB
Copy OK
Track 26
Filename D:\FLAC\Galt MacDermot - Shapes Of Rhythm, Woman Is Sweeter (1966, 1969) [FLAC]\26 - Perfume Bottles.wav
Pre-gap length 0:00:02.18
Peak level 97.7 %
Track quality 99.9 %
Test CRC BC91FF75
Copy CRC BC91FF75
Copy OK
Track 27
Filename D:\FLAC\Galt MacDermot - Shapes Of Rhythm, Woman Is Sweeter (1966, 1969) [FLAC]\27 - Coffee Cold.wav
Pre-gap length 0:00:02.92
Peak level 76.4 %
Track quality 100.0 %
Test CRC 865FBD01
Copy CRC 865FBD01
Copy OK
No errors occured
End of status report
 
Содержание индексной карты (.CUE)
;
;--[ Created by Medieval CUE Splitter! ]--
;
;-----------[ www.medieval.it ]-----------
;
TITLE "Shapes Of Rhythm/Woman Is Sweeter"
PERFORMER "Galt MacDermot"
FILE "01.Galt MacDermot - Lady, You Look Good To Me.flac" WAVE
TRACK 01 AUDIO
TITLE "Lady, You Look Good To Me"
PERFORMER "Galt MacDermot"
INDEX 01 00:00:00
FILE "02.Galt MacDermot - Farmland.flac" WAVE
TRACK 02 AUDIO
TITLE Farmland
PERFORMER "Galt MacDermot"
INDEX 00 00:00:00
INDEX 01 00:03:43
FILE "03.Galt MacDermot - Coffee Cold.flac" WAVE
TRACK 03 AUDIO
TITLE "Coffee Cold"
PERFORMER "Galt MacDermot"
INDEX 00 00:00:00
INDEX 01 00:03:06
FILE "04.Galt MacDermot - Marsh Gas.flac" WAVE
TRACK 04 AUDIO
TITLE "Marsh Gas"
PERFORMER "Galt MacDermot"
INDEX 00 00:00:00
INDEX 01 00:03:09
FILE "05.Galt MacDermot - If Our Love Is Real.flac" WAVE
TRACK 05 AUDIO
TITLE "If Our Love Is Real"
PERFORMER "Galt MacDermot"
INDEX 00 00:00:00
INDEX 01 00:03:24
FILE "06.Galt MacDermot - Mouse Roared.flac" WAVE
TRACK 06 AUDIO
TITLE "Mouse Roared"
PERFORMER "Galt MacDermot"
INDEX 00 00:00:00
INDEX 01 00:03:68
FILE "07.Galt MacDermot - Tender Meeting.flac" WAVE
TRACK 07 AUDIO
TITLE "Tender Meeting"
PERFORMER "Galt MacDermot"
INDEX 00 00:00:00
INDEX 01 00:02:54
FILE "08.Galt MacDermot - M'Babam.flac" WAVE
TRACK 08 AUDIO
TITLE M'Babam
PERFORMER "Galt MacDermot"
INDEX 00 00:00:00
INDEX 01 00:03:39
FILE "09.Galt MacDermot - Field Of Sorrow.flac" WAVE
TRACK 09 AUDIO
TITLE "Field Of Sorrow"
PERFORMER "Galt MacDermot"
INDEX 00 00:00:00
INDEX 01 00:03:08
FILE "10.Galt MacDermot - Alive In Dar-Es-Salaam.flac" WAVE
TRACK 10 AUDIO
TITLE "Alive In Dar-Es-Salaam"
PERFORMER "Galt MacDermot"
INDEX 00 00:00:00
INDEX 01 00:03:21
FILE "11.Galt MacDermot - Spanish Nights.flac" WAVE
TRACK 11 AUDIO
TITLE "Spanish Nights"
PERFORMER "Galt MacDermot"
INDEX 00 00:00:00
INDEX 01 00:02:68
FILE "12.Galt MacDermot - I'm Through With You.flac" WAVE
TRACK 12 AUDIO
TITLE "I'm Through With You"
PERFORMER "Galt MacDermot"
INDEX 00 00:00:00
INDEX 01 00:02:61
FILE "13.Galt MacDermot - Tango.flac" WAVE
TRACK 13 AUDIO
TITLE Tango
PERFORMER "Galt MacDermot"
INDEX 00 00:00:00
INDEX 01 00:02:44
FILE "14.Galt MacDermot - Fragments 1A.flac" WAVE
TRACK 14 AUDIO
TITLE "Fragments 1A"
PERFORMER "Galt MacDermot"
INDEX 00 00:00:00
INDEX 01 00:00:71
FILE "15.Galt MacDermot - Fragments 1B.flac" WAVE
TRACK 15 AUDIO
TITLE "Fragments 1B"
PERFORMER "Galt MacDermot"
INDEX 00 00:00:00
INDEX 01 00:02:27
FILE "16.Galt MacDermot - Fragments II.flac" WAVE
TRACK 16 AUDIO
TITLE "Fragments II"
PERFORMER "Galt MacDermot"
INDEX 00 00:00:00
INDEX 01 00:01:47
FILE "17.Galt MacDermot - Bass.flac" WAVE
TRACK 17 AUDIO
TITLE Bass
PERFORMER "Galt MacDermot"
INDEX 00 00:00:00
INDEX 01 00:01:25
FILE "18.Galt MacDermot - Cathedral.flac" WAVE
TRACK 18 AUDIO
TITLE Cathedral
PERFORMER "Galt MacDermot"
INDEX 00 00:00:00
INDEX 01 00:01:68
FILE "19.Galt MacDermot - Woman Is Sweeter.flac" WAVE
TRACK 19 AUDIO
TITLE "Woman Is Sweeter"
PERFORMER "Galt MacDermot"
INDEX 00 00:00:00
INDEX 01 00:01:73
FILE "20.Galt MacDermot - Moving Clothes.flac" WAVE
TRACK 20 AUDIO
TITLE "Moving Clothes"
PERFORMER "Galt MacDermot"
INDEX 00 00:00:00
INDEX 01 00:01:74
FILE "21.Galt MacDermot - Bathtub.flac" WAVE
TRACK 21 AUDIO
TITLE Bathtub
PERFORMER "Galt MacDermot"
INDEX 00 00:00:00
INDEX 01 00:01:61
FILE "22.Galt MacDermot - Radio Rock.flac" WAVE
TRACK 22 AUDIO
TITLE "Radio Rock"
PERFORMER "Galt MacDermot"
INDEX 00 00:00:00
INDEX 01 00:02:66
FILE "23.Galt MacDermot - Princess Gika.flac" WAVE
TRACK 23 AUDIO
TITLE "Princess Gika"
PERFORMER "Galt MacDermot"
INDEX 00 00:00:00
INDEX 01 00:03:66
FILE "24.Galt MacDermot - Merry-Go-Round.flac" WAVE
TRACK 24 AUDIO
TITLE Merry-Go-Round
PERFORMER "Galt MacDermot"
INDEX 00 00:00:00
INDEX 01 00:03:18
FILE "25.Galt MacDermot - Space.flac" WAVE
TRACK 25 AUDIO
TITLE Space
PERFORMER "Galt MacDermot"
INDEX 00 00:00:00
INDEX 01 00:03:33
FILE "26.Galt MacDermot - Perfume Bottles.flac" WAVE
TRACK 26 AUDIO
TITLE "Perfume Bottles"
PERFORMER "Galt MacDermot"
INDEX 00 00:00:00
INDEX 01 00:02:14
FILE "27.Galt MacDermot - Coffee Cold.flac" WAVE
TRACK 27 AUDIO
TITLE "Coffee Cold"
PERFORMER "Galt MacDermot"
INDEX 00 00:00:00
INDEX 01 00:02:69
 
Об альбоме (сборнике)
 
Состав
Shapes Of Rhythm
Galt MacDermot - Piano, Arranger, Composer
Bernard "Pretty" Purdie - Drums
Jimmy Lewis - Bass
Napolean "Snag" Allen - Guitar
Woman Is Sweeter
Galt MacDermot - Piano, Rocksichord, Arranger, Composer
Bernard "Pretty" Purdie - Drums (13-19)
Idris Muhammad (20-26)
Charlie Brown - Guitar, Violin
Fergus McRoy - Vocal on Woman Is Sweeter
Unknown Violin on Princess Gika
Jimmy Lewis - Bass
Приватный:
Нет (DHT включён)
Размер:
429.66 Мб (450,526,794 байт) » файлов: 40
Участники:
0 раздают, 3 качают (3 участников всего)
Внешние участники:
8 раздают, 2 качают (10 участников всего) [ Обновить ]
Скорость:
186.59 Кб/c 0/c
Есть вопросы - пишите личное сообщение пользователю M0p94ok.
13:23
288
Нет комментариев. Ваш будет первым!