Поиск

(Jazz-Funk, Soul Jazz) [CD] Johnny Hammond - Gears (40th Anniversary Edition) - 1975 (2015), FLAC (tracks+.cue), lossless

(Jazz-Funk, Soul Jazz) [CD] Johnny Hammond - Gears (40th Anniversary Edition) - 1975 (2015), FLAC (tracks+.cue), lossless
Треклист:
Johnny Hammond - Gears (40th Anniversary Edition)
Жанр: Jazz-Funk, Soul Jazz
Носитель: CD
Страна-производитель диска (релиза): Великобритания
Год издания: 2015
Издатель (лейбл): BGP Records
Номер по каталогу: CDBGPD 291
Страна исполнителя (группы): США
Аудиокодек: FLAC (*.flac)
Тип рипа: tracks+.cue
Битрейт аудио: lossless
Продолжительность: 63:42
Источник (релизер): improbab
Наличие сканов в содержимом раздачи: да
Треклист:
01. Tell Me What to Do (F.Mizell-L.Mizell) - 5:21
02. Los Conquistadores Chocolates (F.Mizell-L.Mizell) - 6:12
03. Lost on 23rd Street (F.Mizell-L.Mizell) - 5:57
04. Fantasy (Hammond-L.Mizell) - 6:08
05. Shifting Gears (F.Mizell-L.Mizell) - 5:19
06. Can't We Smile? (F.Mizell-L.Mizell) - 4:36
07. A Child's Love (Fast) (F.Mizell-L.Mizell) - 4:36
08. A Child's Love (Slow) (F.Mizell-L.Mizell) - 5:31
09. Song for My Family (F.Mizell-L.Mizell) - 6:07
10. Detroit Rainbow (F.Mizell-L.Mizell) - 4:01
11. Funky Native (F.Mizell-L.Mizell) - 4:12
12. Can't We Smile? (alt) (F.Mizell-L.Mizell) - 5:42
 
Лог создания рипа
X Lossless Decoder version 20161007 (149.3)
XLD extraction logfile from 2017-01-01 21:57:57 +0100
Johnny Hammond / Gears - 40th Anniversary
Used drive : MATSHITA BD-MLT UJ272 (revision 1.01)
Media type : Pressed CD
Ripper mode : XLD Secure Ripper
Disable audio cache : OK for the drive with a cache less than 1375KiB
Make use of C2 pointers : NO
Read offset correction : 103
Max retry count : 20
Gap status : Analyzed, Appended (except HTOA)
TOC of the extracted CD
Track | Start | Length | Start sector | End sector
---------------------------------------------------------
1 | 00:00:00 | 05:21:16 | 0 | 24090
2 | 05:21:16 | 06:11:53 | 24091 | 51968
3 | 11:32:69 | 05:56:57 | 51969 | 78725
4 | 17:29:51 | 06:07:64 | 78726 | 106314
5 | 23:37:40 | 05:18:64 | 106315 | 130228
6 | 28:56:29 | 04:36:31 | 130229 | 150959
7 | 33:32:60 | 04:36:06 | 150960 | 171665
8 | 38:08:66 | 05:31:28 | 171666 | 196518
9 | 43:40:19 | 06:07:23 | 196519 | 224066
10 | 49:47:42 | 04:00:71 | 224067 | 242137
11 | 53:48:38 | 04:12:12 | 242138 | 261049
12 | 58:00:50 | 05:41:68 | 261050 | 286692
AccurateRip Summary (DiscID: 001d5d47-010f859b-9b0eee0c)
Track 01 : OK (v2, confidence 2/2)
Track 02 : OK (v2, confidence 2/2)
Track 03 : OK (v2, confidence 2/2)
Track 04 : OK (v2, confidence 2/2)
Track 05 : OK (v2, confidence 2/2)
Track 06 : OK (v2, confidence 2/2)
Track 07 : OK (v2, confidence 2/2)
Track 08 : OK (v2, confidence 2/2)
Track 09 : OK (v2, confidence 2/2)
Track 10 : OK (v2, confidence 2/2)
Track 11 : OK (v2, confidence 2/2)
Track 12 : OK (v2, confidence 2/2)
->All tracks accurately ripped.
All Tracks
Album gain : -2.50 dB
Peak : 0.961975
Statistics
Read error : 0
Jitter error (maybe fixed) : 0
Retry sector count : 0
Damaged sector count : 0
Track 01
Filename : /XLDs/Johnny Hammond - Gears - 40th Anniversary (Unknown Year) [FLAC]/01 Tell Me What To Do.flac
/XLDs/Johnny Hammond - Gears - 40th Anniversary (Unknown Year) [MP3 V0]/01 Tell Me What To Do.mp3
/XLDs/Johnny Hammond - Gears - 40th Anniversary (Unknown Year) [MP3 320]/01 Tell Me What To Do.mp3
Pre-gap length : 00:02:00
Track gain : -2.91 dB
Peak : 0.961975
CRC32 hash (test run) : DC1F2FEB
CRC32 hash : DC1F2FEB
CRC32 hash (skip zero) : 1066945C
AccurateRip v1 signature : 3F70B8C6
AccurateRip v2 signature : 5CE61FF3
->Accurately ripped (v2, confidence 2/2)
Statistics
Read error : 0
Jitter error (maybe fixed) : 0
Retry sector count : 0
Damaged sector count : 0
Track 02
Filename : /XLDs/Johnny Hammond - Gears - 40th Anniversary (Unknown Year) [FLAC]/02 Los Conquistadores ChocolatГ©s.flac
/XLDs/Johnny Hammond - Gears - 40th Anniversary (Unknown Year) [MP3 V0]/02 Los Conquistadores ChocolatГ©s.mp3
/XLDs/Johnny Hammond - Gears - 40th Anniversary (Unknown Year) [MP3 320]/02 Los Conquistadores ChocolatГ©s.mp3
Pre-gap length : 00:00:50
Track gain : -2.94 dB
Peak : 0.961945
CRC32 hash (test run) : 932B612A
CRC32 hash : 932B612A
CRC32 hash (skip zero) : 639009A6
AccurateRip v1 signature : 97790BBB
AccurateRip v2 signature : 5FC35652
->Accurately ripped (v2, confidence 2/2)
Statistics
Read error : 0
Jitter error (maybe fixed) : 0
Retry sector count : 0
Damaged sector count : 0
Track 03
Filename : /XLDs/Johnny Hammond - Gears - 40th Anniversary (Unknown Year) [FLAC]/03 Lost On 23rd Street.flac
/XLDs/Johnny Hammond - Gears - 40th Anniversary (Unknown Year) [MP3 V0]/03 Lost On 23rd Street.mp3
/XLDs/Johnny Hammond - Gears - 40th Anniversary (Unknown Year) [MP3 320]/03 Lost On 23rd Street.mp3
Pre-gap length : 00:02:68
Track gain : -2.21 dB
Peak : 0.943756
CRC32 hash (test run) : 2BEF25D8
CRC32 hash : 2BEF25D8
CRC32 hash (skip zero) : C9A20206
AccurateRip v1 signature : 3D306523
AccurateRip v2 signature : F01EA007
->Accurately ripped (v2, confidence 2/2)
Statistics
Read error : 0
Jitter error (maybe fixed) : 0
Retry sector count : 0
Damaged sector count : 0
Track 04
Filename : /XLDs/Johnny Hammond - Gears - 40th Anniversary (Unknown Year) [FLAC]/04 Fantasy.flac
/XLDs/Johnny Hammond - Gears - 40th Anniversary (Unknown Year) [MP3 V0]/04 Fantasy.mp3
/XLDs/Johnny Hammond - Gears - 40th Anniversary (Unknown Year) [MP3 320]/04 Fantasy.mp3
Pre-gap length : 00:02:34
Track gain : -3.10 dB
Peak : 0.961945
CRC32 hash (test run) : 2896F515
CRC32 hash : 2896F515
CRC32 hash (skip zero) : 9AB4B41F
AccurateRip v1 signature : 39E208AC
AccurateRip v2 signature : BD74C1D5
->Accurately ripped (v2, confidence 2/2)
Statistics
Read error : 0
Jitter error (maybe fixed) : 0
Retry sector count : 0
Damaged sector count : 0
Track 05
Filename : /XLDs/Johnny Hammond - Gears - 40th Anniversary (Unknown Year) [FLAC]/05 Shifting Gears.flac
/XLDs/Johnny Hammond - Gears - 40th Anniversary (Unknown Year) [MP3 V0]/05 Shifting Gears.mp3
/XLDs/Johnny Hammond - Gears - 40th Anniversary (Unknown Year) [MP3 320]/05 Shifting Gears.mp3
Pre-gap length : 00:02:34
Track gain : -3.54 dB
Peak : 0.908142
CRC32 hash (test run) : 9AF1ECDF
CRC32 hash : 9AF1ECDF
CRC32 hash (skip zero) : 8CF4EE2F
AccurateRip v1 signature : D4B056AB
AccurateRip v2 signature : 2DC6D2CA
->Accurately ripped (v2, confidence 2/2)
Statistics
Read error : 0
Jitter error (maybe fixed) : 0
Retry sector count : 0
Damaged sector count : 0
Track 06
Filename : /XLDs/Johnny Hammond - Gears - 40th Anniversary (Unknown Year) [FLAC]/06 Can't We Smile.flac
/XLDs/Johnny Hammond - Gears - 40th Anniversary (Unknown Year) [MP3 V0]/06 Can't We Smile.mp3
/XLDs/Johnny Hammond - Gears - 40th Anniversary (Unknown Year) [MP3 320]/06 Can't We Smile.mp3
Pre-gap length : 00:02:03
Track gain : -2.99 dB
Peak : 0.961914
CRC32 hash (test run) : 451A6F7A
CRC32 hash : 451A6F7A
CRC32 hash (skip zero) : 0BA9845D
AccurateRip v1 signature : 8913F2BD
AccurateRip v2 signature : 53F8A700
->Accurately ripped (v2, confidence 2/2)
Statistics
Read error : 0
Jitter error (maybe fixed) : 0
Retry sector count : 0
Damaged sector count : 0
Track 07
Filename : /XLDs/Johnny Hammond - Gears - 40th Anniversary (Unknown Year) [FLAC]/07 A Child's Love (Fast).flac
/XLDs/Johnny Hammond - Gears - 40th Anniversary (Unknown Year) [MP3 V0]/07 A Child's Love (Fast).mp3
/XLDs/Johnny Hammond - Gears - 40th Anniversary (Unknown Year) [MP3 320]/07 A Child's Love (Fast).mp3
Pre-gap length : 00:01:00
Track gain : -1.45 dB
Peak : 0.903534
CRC32 hash (test run) : 15204378
CRC32 hash : 15204378
CRC32 hash (skip zero) : 1FFC506F
AccurateRip v1 signature : FD23461A
AccurateRip v2 signature : 4222D760
->Accurately ripped (v2, confidence 2/2)
Statistics
Read error : 0
Jitter error (maybe fixed) : 0
Retry sector count : 0
Damaged sector count : 0
Track 08
Filename : /XLDs/Johnny Hammond - Gears - 40th Anniversary (Unknown Year) [FLAC]/08 A Child's Love (Slow).flac
/XLDs/Johnny Hammond - Gears - 40th Anniversary (Unknown Year) [MP3 V0]/08 A Child's Love (Slow).mp3
/XLDs/Johnny Hammond - Gears - 40th Anniversary (Unknown Year) [MP3 320]/08 A Child's Love (Slow).mp3
Pre-gap length : 00:01:51
Track gain : 0.41 dB
Peak : 0.948944
CRC32 hash (test run) : E5481552
CRC32 hash : E5481552
CRC32 hash (skip zero) : B6847CFA
AccurateRip v1 signature : 31E23AC2
AccurateRip v2 signature : 9ACD392F
->Accurately ripped (v2, confidence 2/2)
Statistics
Read error : 0
Jitter error (maybe fixed) : 0
Retry sector count : 0
Damaged sector count : 0
Track 09
Filename : /XLDs/Johnny Hammond - Gears - 40th Anniversary (Unknown Year) [FLAC]/09 Song For My Family.flac
/XLDs/Johnny Hammond - Gears - 40th Anniversary (Unknown Year) [MP3 V0]/09 Song For My Family.mp3
/XLDs/Johnny Hammond - Gears - 40th Anniversary (Unknown Year) [MP3 320]/09 Song For My Family.mp3
Pre-gap length : 00:02:32
Track gain : -3.17 dB
Peak : 0.872009
CRC32 hash (test run) : D9E753BF
CRC32 hash : D9E753BF
CRC32 hash (skip zero) : 5721B2BD
AccurateRip v1 signature : 50D2B9BD
AccurateRip v2 signature : 3CDF6B63
->Accurately ripped (v2, confidence 2/2)
Statistics
Read error : 0
Jitter error (maybe fixed) : 0
Retry sector count : 0
Damaged sector count : 0
Track 10
Filename : /XLDs/Johnny Hammond - Gears - 40th Anniversary (Unknown Year) [FLAC]/10 Detroit Rainbow.flac
/XLDs/Johnny Hammond - Gears - 40th Anniversary (Unknown Year) [MP3 V0]/10 Detroit Rainbow.mp3
/XLDs/Johnny Hammond - Gears - 40th Anniversary (Unknown Year) [MP3 320]/10 Detroit Rainbow.mp3
Pre-gap length : 00:02:61
Track gain : -1.82 dB
Peak : 0.941986
CRC32 hash (test run) : C2C747FB
CRC32 hash : C2C747FB
CRC32 hash (skip zero) : 73B63EB0
AccurateRip v1 signature : 65FF990A
AccurateRip v2 signature : D7A68623
->Accurately ripped (v2, confidence 2/2)
Statistics
Read error : 0
Jitter error (maybe fixed) : 0
Retry sector count : 0
Damaged sector count : 0
Track 11
Filename : /XLDs/Johnny Hammond - Gears - 40th Anniversary (Unknown Year) [FLAC]/11 Funky Native.flac
/XLDs/Johnny Hammond - Gears - 40th Anniversary (Unknown Year) [MP3 V0]/11 Funky Native.mp3
/XLDs/Johnny Hammond - Gears - 40th Anniversary (Unknown Year) [MP3 320]/11 Funky Native.mp3
Pre-gap length : 00:02:40
Track gain : -0.65 dB
Peak : 0.865448
CRC32 hash (test run) : 197E335B
CRC32 hash : 197E335B
CRC32 hash (skip zero) : 8BECD858
AccurateRip v1 signature : B90CE780
AccurateRip v2 signature : EDF26DDC
->Accurately ripped (v2, confidence 2/2)
Statistics
Read error : 0
Jitter error (maybe fixed) : 0
Retry sector count : 0
Damaged sector count : 0
Track 12
Filename : /XLDs/Johnny Hammond - Gears - 40th Anniversary (Unknown Year) [FLAC]/12 Why Can't We Smile (Alt).flac
/XLDs/Johnny Hammond - Gears - 40th Anniversary (Unknown Year) [MP3 V0]/12 Why Can't We Smile (Alt).mp3
/XLDs/Johnny Hammond - Gears - 40th Anniversary (Unknown Year) [MP3 320]/12 Why Can't We Smile (Alt).mp3
Pre-gap length : 00:02:23
Track gain : -2.26 dB
Peak : 0.961914
CRC32 hash (test run) : 460ECD8A
CRC32 hash : 460ECD8A
CRC32 hash (skip zero) : AE764E9A
AccurateRip v1 signature : 9643F517
AccurateRip v2 signature : 40B95B7C
->Accurately ripped (v2, confidence 2/2)
Statistics
Read error : 0
Jitter error (maybe fixed) : 0
Retry sector count : 0
Damaged sector count : 0
No errors occurred
End of status report
-----BEGIN XLD SIGNATURE-----
ib4F9Wq1GO8XwYan8z4KCGA5lnzVGyScuM8X.E4qoPg6.CMJ1pHXGKKeD1OsL5LxLcuawtQDxgLvKHsSUEEzVwwwwAz9BlYDH7q9NWS
-----END XLD SIGNATURE-----
 
Содержание индексной карты (.CUE)
TITLE "Gears (40th Anniversary Edition)"
PERFORMER "Johnny Hammond"
REM GENRE "Jazz"
REM DATE "1975"
REM DISCID 9B0EEE0C
REM REPLAYGAIN_ALBUM_GAIN -2.50 dB
REM REPLAYGAIN_ALBUM_PEAK 0.961975
FILE "01 - Tell Me What to Do.flac" WAVE
TRACK 01 AUDIO
TITLE "Tell Me What to Do"
ISRC USFI87500060
REM REPLAYGAIN_TRACK_GAIN -2.91 dB
REM REPLAYGAIN_TRACK_PEAK 0.961975
INDEX 01 00:00:00
TRACK 02 AUDIO
TITLE "Los Conquistadores Chocolates"
ISRC USFI87500061
REM REPLAYGAIN_TRACK_GAIN -2.94 dB
REM REPLAYGAIN_TRACK_PEAK 0.961945
INDEX 00 05:20:41
FILE "02 - Los Conquistadores Chocolates.flac" WAVE
INDEX 01 00:00:00
TRACK 03 AUDIO
TITLE "Lost on 23rd Street"
ISRC USFI87500062
REM REPLAYGAIN_TRACK_GAIN -2.21 dB
REM REPLAYGAIN_TRACK_PEAK 0.943756
INDEX 00 06:08:60
FILE "03 - Lost on 23rd Street.flac" WAVE
INDEX 01 00:00:00
TRACK 04 AUDIO
TITLE "Fantasy"
ISRC USFI87500063
REM REPLAYGAIN_TRACK_GAIN -3.10 dB
REM REPLAYGAIN_TRACK_PEAK 0.961945
INDEX 00 05:54:23
FILE "04 - Fantasy.flac" WAVE
INDEX 01 00:00:00
TRACK 05 AUDIO
TITLE "Shifting Gears"
ISRC USFI87500064
REM REPLAYGAIN_TRACK_GAIN -3.54 dB
REM REPLAYGAIN_TRACK_PEAK 0.908142
INDEX 00 06:05:30
FILE "05 - Shifting Gears.flac" WAVE
INDEX 01 00:00:00
TRACK 06 AUDIO
TITLE "Can't We Smile?"
ISRC USFI87500065
REM REPLAYGAIN_TRACK_GAIN -2.99 dB
REM REPLAYGAIN_TRACK_PEAK 0.961914
INDEX 00 05:16:61
FILE "06 - Can't We Smile.flac" WAVE
INDEX 01 00:00:00
TRACK 07 AUDIO
TITLE "A Child's Love (Fast)"
ISRC USC4R1503732
REM REPLAYGAIN_TRACK_GAIN -1.45 dB
REM REPLAYGAIN_TRACK_PEAK 0.903534
INDEX 00 04:35:31
FILE "07 - A Child's Love (Fast).flac" WAVE
INDEX 01 00:00:00
TRACK 08 AUDIO
TITLE "A Child's Love (Slow)"
ISRC USC4R1503733
REM REPLAYGAIN_TRACK_GAIN 0.41 dB
REM REPLAYGAIN_TRACK_PEAK 0.948944
INDEX 00 04:34:30
FILE "08 - A Child's Love (Slow).flac" WAVE
INDEX 01 00:00:00
TRACK 09 AUDIO
TITLE "Song for My Family"
ISRC USC4R1503734
REM REPLAYGAIN_TRACK_GAIN -3.17 dB
REM REPLAYGAIN_TRACK_PEAK 0.872009
INDEX 00 05:28:71
FILE "09 - Song for My Family.flac" WAVE
INDEX 01 00:00:00
TRACK 10 AUDIO
TITLE "Detroit Rainbow"
ISRC USC4R1503735
REM REPLAYGAIN_TRACK_GAIN -1.82 dB
REM REPLAYGAIN_TRACK_PEAK 0.941986
INDEX 00 06:04:37
FILE "10 - Detroit Rainbow.flac" WAVE
INDEX 01 00:00:00
TRACK 11 AUDIO
TITLE "Funky Native"
ISRC USC4R1503736
REM REPLAYGAIN_TRACK_GAIN -0.65 dB
REM REPLAYGAIN_TRACK_PEAK 0.865448
INDEX 00 03:58:31
FILE "11 - Funky Native.flac" WAVE
INDEX 01 00:00:00
TRACK 12 AUDIO
TITLE "Can't We Smile? (alt)"
ISRC USC4R1503737
REM REPLAYGAIN_TRACK_GAIN -2.26 dB
REM REPLAYGAIN_TRACK_PEAK 0.961914
INDEX 00 04:09:64
FILE "12 - Can't We Smile (alt).flac" WAVE
INDEX 01 00:00:00
 
Отчет CUETools
[CUETools log; Date: 11.09.2017 13:40:27; Version: 2.1.5]
[CTDB TOCID: Gb1np.wCn6w3cJkAUJzoz2zpiQE-] found.
Track | CTDB Status
1 | (3/3) Accurately ripped
2 | (3/3) Accurately ripped
3 | (3/3) Accurately ripped
4 | (3/3) Accurately ripped
5 | (3/3) Accurately ripped
6 | (3/3) Accurately ripped
7 | (3/3) Accurately ripped
8 | (3/3) Accurately ripped
9 | (3/3) Accurately ripped
10 | (3/3) Accurately ripped
11 | (3/3) Accurately ripped
12 | (3/3) Accurately ripped
[AccurateRip ID: 001d5d47-010f859b-9b0eee0c] found.
Track [ CRC | V2 ] Status
01 [3f70b8c6|5ce61ff3] (0+2/2) Accurately ripped
02 [97790bbb|5fc35652] (0+2/2) Accurately ripped
03 [3d306523|f01ea007] (0+2/2) Accurately ripped
04 [39e208ac|bd74c1d5] (0+2/2) Accurately ripped
05 [d4b056ab|2dc6d2ca] (0+2/2) Accurately ripped
06 [8913f2bd|53f8a700] (0+2/2) Accurately ripped
07 [fd23461a|4222d760] (0+2/2) Accurately ripped
08 [31e23ac2|9acd392f] (0+2/2) Accurately ripped
09 [50d2b9bd|3cdf6b63] (0+2/2) Accurately ripped
10 [65ff990a|d7a68623] (0+2/2) Accurately ripped
11 [b90ce780|edf26ddc] (0+2/2) Accurately ripped
12 [9643f517|40b95b7c] (0+2/2) Accurately ripped
Track Peak [ CRC32 ] [W/O NULL]
-- 96,2 [92F02EB7] [529280B0]
01 96,2 [DC1F2FEB] [1066945C]
02 96,1 [932B612A] [639009A6]
03 94,3 [2BEF25D8] [C9A20206]
04 96,1 [2896F515] [9AB4B41F]
05 90,8 [9AF1ECDF] [8CF4EE2F]
06 96,1 [451A6F7A] [0BA9845D]
07 90,3 [15204378] [1FFC506F]
08 94,8 [E5481552] [B6847CFA]
09 87,2 [D9E753BF] [5721B2BD]
10 94,1 [C2C747FB] [73B63EB0]
11 86,5 [197E335B] [8BECD858]
12 96,1 [460ECD8A] [AE764E9A]
 
Об альбоме (сборнике)
By the mid-'70s, the embracing and assimilation of soul and funk elements into the jazz vernacular had come full steam. Artists and producers from both communities were exchanging ideas and sounds that once again challenged jazz purists' definitions of what jazz "should" be. These collaborations were often scoffed at by academics and critics attempting to pigeonhole and quantify jazz into an academic exercise ripe with songbook predictability and sonic parameters. Thankfully, the record-buying public at large had the good sense to politely ignore these people and continue purchasing records with these new sounds, largely concocted by the production team of Larry and Fonce Mizell. This time around, their subject was Johnny "Hammond" Smith who proves to be more than up to the task of playing around and inside the Mizell's string arrangements which foreshadowed the early days of disco. In fact, two of the cuts found on Gears -- "Fantasy" and "Los Conquistadores Chocolates" -- were played extensively at the early Loft parties hosted by legendary DJ David Mancuso, as well as at the club many consider to be the true home of disco, the Paradise Garage in NYC. Gears starts off innocently enough with "Tell Me What To Do," which could have easily found its way on to a Donald Byrd album from this period, but then kicks into full steam with "Los Conquistadores Chocolates," a six-and-a-half-minute tour de force of funk, soul, jazz and disco all rolled into one. Hammond is in fine form throughout with crisp playing; never over improvising, but playing only what's necessary to help the music move along at a brisk pace. This is unquestionably another jewel in a treasure chest already filled with so many for the Mizell production team, and a great performance by Hammond to keep up with his contemporaries who refuse to be held back by conventional wisdom.
-- AllMusic Review by Rob Theakston
One of the most important albums to mix jazz and funk in the mid-70s, “Gears” is a masterful collaboration between Hammond and producers the Mizell brothers. To mark its 40th anniversary, the album has been remastered from new transfers and is presented with six previously unissued bonus tracks.
 
Состав
Johnny Hammond - electric piano, synthesizer, organ
Julian Priester - trombone
Hadley Caliman - tenor saxophone
Roger Glenn - flute, vibes
Michael White - violin
Jerry Peters - electric piano, acoustic piano
Fonce Mizell - clavinet, background vocals
Larry Mizell - solina, background vocals
John Rowin, Craig McMullen - guitars
Chuck Rainey - electric bass
Harvey Mason - drums
Kenneth Nash - percussion
Recorded at Fantasy Studios, Berkeley, CA in July 1975.
Приватный:
Нет (DHT включён)
Размер:
389.76 Мб (408,689,003 байт) » файлов: 23
Участники:
0 раздают, 0 качают (0 участников всего)
Внешние участники:
9 раздают, 3 качают (12 участников всего) [ Обновить ]
Есть вопросы - пишите личное сообщение пользователю M0p94ok.
14:32
55
Нет комментариев. Ваш будет первым!