Поиск

(Jazz-Funk, Soul, Easy Listening) [CD] Ben Sidran - A Little Kiss In The Night - 1978 (K2 - 24 Bit Mastering 2008), FLAC (image+.cue), lossless

(Jazz-Funk, Soul, Easy Listening) [CD] Ben Sidran - A Little Kiss In The Night - 1978 (K2 - 24 Bit Mastering 2008), FLAC (image+.cue), lossless
Треклист:
Ben Sidran - A Little Kiss In The Night
Жанр: Jazz-Funk, Soul, Easy Listening
Носитель: CD
Страна-производитель диска (релиза): Japan
Год издания: 1978 (2008)
Издатель (лейбл): Arista (BMG Japan)
Номер по каталогу: BVCM-35215
Страна исполнителя (группы): USA
Аудиокодек: FLAC (*.flac)
Тип рипа: image+.cue
Битрейт аудио: lossless
Продолжительность: 00:33:37
Источник (релизер): собственный рип
Наличие сканов в содержимом раздачи: да
Треклист:
01. Kiss In The Night
02. You Got The Power
03. Moose The Mooch
04. The Cadillac Kid
05. That's Life I Guess
06. Doing You
07. Tell Old Bill
08. Mr. Bill Goes To Brazil
09. Face Your Fears
 
Лог создания рипа
Exact Audio Copy V1.3 from 2. September 2016
Отчёт EAC об извлечении, выполненном 1. апреля 2018, 18:30
Ben Sidran / A Little Kiss In The Night
Дисковод: ASUS DRW-24B3ST Adapter: 1 ID: 0
Режим чтения : Достоверность
Использование точного потока : Да
Отключение кэша аудио : Да
Использование указателей C2 : Нет
Коррекция смещения при чтении : 6
Способность читать области Lead-in и Lead-out : Нет
Заполнение пропущенных сэмплов тишиной : Да
Удаление блоков с тишиной в начале и конце : Нет
При вычислениях CRC использовались нулевые сэмплы : Да
Интерфейс : Встроенный Win32-интерфейс для Win NT/2000
Выходной формат : Пользовательский кодировщик
Выбранный битрейт : 1024 kBit/s
Качество : Высокий
Добавление ID3-тега : Нет
Утилита сжатия : C:\Program Files (x86)\Exact Audio Copy\Flac\flac.exe
Дополнительные параметры : -V -8 -T "Date=%year%" -T "Genre=%genre%" %source%
TOC извлечённого CD
Трек | Старт | Длительность | Начальный сектор | Конечный сектор
---------------------------------------------------------------------
1 | 0:00.00 | 3:21.72 | 0 | 15146
2 | 3:21.72 | 3:15.60 | 15147 | 29831
3 | 6:37.57 | 5:21.45 | 29832 | 53951
4 | 11:59.27 | 3:38.63 | 53952 | 70364
5 | 15:38.15 | 4:52.00 | 70365 | 92264
6 | 20:30.15 | 4:30.07 | 92265 | 112521
7 | 25:00.22 | 2:38.25 | 112522 | 124396
8 | 27:38.47 | 2:57.48 | 124397 | 137719
9 | 30:36.20 | 3:00.32 | 137720 | 151251
Характеристики диапазона извлечения и сообщения об ошибках
Выбранный диапазон
Имя файла E:\Torrents\Ben Sidran - 1978 - A Little Kiss In The Night\Ben Sidran - A Little Kiss In The Night.wav
Пиковый уровень 100.0 %
Скорость извлечения 7.4 X
Качество диапазона 100.0 %
CRC теста 21051525
CRC копии 21051525
Копирование... OK
Ошибок не произошло
AccurateRip: сводка
Трек 1 : извлечено точно (доверие 2) [D3211A8C] (AR v2)
Трек 2 : извлечено точно (доверие 2) [C1E46F1C] (AR v2)
Трек 3 : извлечено точно (доверие 2) [5D079B16] (AR v2)
Трек 4 : извлечено точно (доверие 2) [037F9861] (AR v2)
Трек 5 : извлечено точно (доверие 2) [BE7A99CE] (AR v2)
Трек 6 : извлечено точно (доверие 2) [C3129B15] (AR v2)
Трек 7 : извлечено точно (доверие 2) [A3FD4E02] (AR v2)
Трек 8 : извлечено точно (доверие 2) [8790853E] (AR v2)
Трек 9 : извлечено точно (доверие 2) [409D451E] (AR v2)
Все треки извлечены точно
Конец отчёта
==== Контрольная сумма отчёта B83EEE09AF3C14F2DD95CF384F0BCE656187C45AB7F988270A21B213E4D90B0F ====
 
Замер динамического диапазона (DR)
foobar2000 1.3.17 / Dynamic Range Meter 1.1.1
log date: 2018-04-01 18:33:04
--------------------------------------------------------------------------------
Analyzed: Ben Sidran / A Little Kiss In The Night
--------------------------------------------------------------------------------
DR Peak RMS Duration Track
--------------------------------------------------------------------------------
DR9 0.00 dB -11.23 dB 3:22 01-Kiss In The Night
DR9 -0.05 dB -10.50 dB 3:16 02-You Got The Power
DR13 0.00 dB -15.45 dB 5:22 03-Moose The Mooch
DR10 0.00 dB -11.86 dB 3:39 04-The Cadillac Kid
DR10 -0.03 dB -13.81 dB 4:52 05-That's Life I Guess
DR11 0.00 dB -13.74 dB 4:30 06-Doing You
DR10 0.00 dB -11.98 dB 2:38 07-Tell Old Bill
DR10 0.00 dB -12.13 dB 2:58 08-Mr. Bill Goes To Brazil
DR13 -0.04 dB -16.86 dB 3:00 09-Face Your Fears
--------------------------------------------------------------------------------
Number of tracks: 9
Official DR value: DR11
Samplerate: 44100 Hz
Channels: 2
Bits per sample: 16
Bitrate: 930 kbps
Codec: FLAC
================================================================================
 
Об исполнителе
 
Состав
Ben Sidran - Piano, Vocals
Bob Glaub, Gerald Johnson, Abe Laboriel - Bass
Bill Meeker - Drums
Gary Coleman - Percussion
Jay Graydon, Arthur Adams, James "Curley" Cooke, Jesse Ed Davis - Guitars
Phil Woods, David Woodford - Saxophone
Mike Finnegan, Max Gronanthal - Back Vocals
Mike Melvoin - Strings
Приватный:
Нет (DHT включён)
Размер:
253.70 Мб (266,027,447 байт) » файлов: 19
Участники:
0 раздают, 0 качают (0 участников всего)
Внешние участники:
1 раздают, 0 качают (1 участников всего) [ Обновить ]
Есть вопросы - пишите личное сообщение пользователю M0p94ok.
15:42
52
Нет комментариев. Ваш будет первым!