Поиск

(Jazz-Funk, Soul, Contemporary Jazz) [CD] The Brit Funk Association - Full Circle - 2018, FLAC (image+.cue), lossless

(Jazz-Funk, Soul, Contemporary Jazz) [CD] The Brit Funk Association - Full Circle - 2018, FLAC (image+.cue), lossless
Треклист:
The Brit Funk Association - Full Circle
Жанр: Jazz-Funk, Soul, Contemporary Jazz
Носитель: CD
Страна-производитель диска (релиза): Russia, Unofficial
Год издания: 2018
Издатель (лейбл): Expansion Records
Номер по каталогу: EXCDP71
Страна исполнителя (группы): UK & Europe
Аудиокодек: FLAC (*.flac)
Тип рипа: image+.cue
Битрейт аудио: lossless
Продолжительность: 01:09:53
Источник (релизер): собственный рип
Наличие сканов в содержимом раздачи: да
Треклист:
01. The BFA Theme (Let The Music Blow Your Mind) 5:22
02. I've Found Someone To Love 5:08
03. Water 6:15
04. We Love The Sunshine On Our Face 4:25
05. Stand Strong, Stand Tall 4:30
06. After The Sun 5:25
07. Lucky 4:19
08. Tell Me What You're Thinking Of 4:29
09. Paradigm Shift 4:31
10. Seventeen 4:50
11. The First People 1:12
12. Make It Funky 5:20
13. Let's All Work It Out 4:09
14. Shine 5:32
15. Get Up 3:53
 
Лог создания рипа
Exact Audio Copy V1.3 from 2. September 2016
Отчёт EAC об извлечении, выполненном 13. февраля 2018, 15:36
The Brit Funk Association / Full Circle
Дисковод: ASUS DRW-24B3ST Adapter: 1 ID: 0
Режим чтения : Достоверность
Использование точного потока : Да
Отключение кэша аудио : Да
Использование указателей C2 : Нет
Коррекция смещения при чтении : 6
Способность читать области Lead-in и Lead-out : Нет
Заполнение пропущенных сэмплов тишиной : Да
Удаление блоков с тишиной в начале и конце : Нет
При вычислениях CRC использовались нулевые сэмплы : Да
Интерфейс : Встроенный Win32-интерфейс для Win NT/2000
Выходной формат : Пользовательский кодировщик
Выбранный битрейт : 1024 kBit/s
Качество : Высокий
Добавление ID3-тега : Нет
Утилита сжатия : C:\Program Files (x86)\Exact Audio Copy\Flac\flac-1.3.2-win\win64\flac.exe
Дополнительные параметры : -V -8 -T "Date=%year%" -T "Genre=%genre%" %source%
TOC извлечённого CD
Трек | Старт | Длительность | Начальный сектор | Конечный сектор
---------------------------------------------------------------------
1 | 0:00.00 | 5:32.18 | 0 | 24917
2 | 5:32.18 | 5:09.38 | 24918 | 48130
3 | 10:41.56 | 6:16.61 | 48131 | 76391
4 | 16:58.42 | 4:26.67 | 76392 | 96408
5 | 21:25.34 | 4:31.41 | 96409 | 116774
6 | 25:57.00 | 5:26.49 | 116775 | 141273
7 | 31:23.49 | 4:20.44 | 141274 | 160817
8 | 35:44.18 | 4:31.15 | 160818 | 181157
9 | 40:15.33 | 4:32.74 | 181158 | 201631
10 | 44:48.32 | 4:52.19 | 201632 | 223550
11 | 49:40.51 | 1:13.63 | 223551 | 229088
12 | 50:54.39 | 5:22.17 | 229089 | 253255
13 | 56:16.56 | 4:11.16 | 253256 | 272096
14 | 60:27.72 | 5:33.48 | 272097 | 297119
15 | 66:01.45 | 3:51.57 | 297120 | 314501
Характеристики диапазона извлечения и сообщения об ошибках
Выбранный диапазон
Имя файла E:\Torrents\The Brit Funk Association - 2018 - Full Circle\The Brit Funk Association - Full Circle.wav
Пиковый уровень 100.0 %
Скорость извлечения 9.7 X
Качество диапазона 100.0 %
CRC теста 76E44AD7
CRC копии 76E44AD7
Копирование... OK
Ошибок не произошло
AccurateRip: сводка
Трек 1 отсутствует в базе данных
Трек 2 отсутствует в базе данных
Трек 3 отсутствует в базе данных
Трек 4 отсутствует в базе данных
Трек 5 отсутствует в базе данных
Трек 6 отсутствует в базе данных
Трек 7 отсутствует в базе данных
Трек 8 отсутствует в базе данных
Трек 9 отсутствует в базе данных
Трек 10 отсутствует в базе данных
Трек 11 отсутствует в базе данных
Трек 12 отсутствует в базе данных
Трек 13 отсутствует в базе данных
Трек 14 отсутствует в базе данных
Трек 15 отсутствует в базе данных
Ни одного трека нет в базе AccurateRip
Конец отчёта
==== Контрольная сумма отчёта 5A56B0072F6A09167A7EB1064FDAB0D4C359E419E899841153CCBC7B4DBFD5DF ====
 
Замер динамического диапазона (DRM)
foobar2000 1.3.17 / Dynamic Range Meter 1.1.1
log date: 2018-02-13 15:38:03
--------------------------------------------------------------------------------
Analyzed: The Brit Funk Association / Full Circle
--------------------------------------------------------------------------------
DR Peak RMS Duration Track
--------------------------------------------------------------------------------
DR9 0.00 dB -10.79 dB 5:32 01-The BFA Theme (Let The Music Blow Your Mind) 1
DR7 -0.32 dB -9.02 dB 5:10 02-I've Found Someone To Love
DR7 -1.50 dB -9.87 dB 6:17 03-Water
DR9 -0.21 dB -10.52 dB 4:27 04-We Love The Sunshine On Our Face
DR8 -0.21 dB -9.06 dB 4:32 05-Stand Strong, Stand Tall
DR11 0.00 dB -12.77 dB 5:27 06-After The Sun
DR10 0.00 dB -12.23 dB 4:21 07-Lucky
DR7 -0.21 dB -9.76 dB 4:31 08-Tell Me What You're Thinkin' Of
DR7 -1.50 dB -8.97 dB 4:33 09-Paradigm Shift
DR11 0.00 dB -12.62 dB 4:52 10-Seventeen
DR9 -1.59 dB -11.50 dB 1:14 11-The First People
DR12 0.00 dB -13.15 dB 5:22 12-Make It Funky
DR12 0.00 dB -13.60 dB 4:11 13-Let's All Work It Out
DR9 -0.20 dB -10.68 dB 5:34 14-Shine A Light
DR10 -1.50 dB -12.84 dB 3:52 15-Get Up
--------------------------------------------------------------------------------
Number of tracks: 15
Official DR value: DR9
Samplerate: 44100 Hz
Channels: 2
Bits per sample: 16
Bitrate: 888 kbps
Codec: FLAC
================================================================================
Приватный:
Нет (DHT включён)
Размер:
469.73 Мб (492,545,576 байт) » файлов: 11
Участники:
0 раздают, 0 качают (0 участников всего)
Внешние участники:
5 раздают, 1 качают (6 участников всего) [ Обновить ]
Есть вопросы - пишите личное сообщение пользователю M0p94ok.
15:34
65
Нет комментариев. Ваш будет первым!