Поиск

(Jazz-Funk, Soul) [CD] Richard Tee - Natural Ingredients - 1980 (2015 Japan Edition), FLAC (image+.cue), lossless

(Jazz-Funk, Soul) [CD] Richard Tee - Natural Ingredients - 1980 (2015 Japan Edition), FLAC (image+.cue), lossless
Треклист:
Richard Tee - Natural Ingredients
Жанр: Jazz-Funk, Soul
Носитель: CD
Страна-производитель диска (релиза): Япония
Год издания: 1980 (2015)
Издатель (лейбл): Tappan Zee Records/Victor Entertainment
Номер по каталогу: VICJ-61732
Страна исполнителя (группы): США
Аудиокодек: FLAC (*.flac)
Тип рипа: image+.cue
Битрейт аудио: lossless
Продолжительность: 35:35
Источник (релизер): kvapar (Спасибо Егору из PTZ)
Наличие сканов в содержимом раздачи: да
Треклист:
01. What a Woman Really Means (McDonald-Salter) - 6:08
02. Now (Williams) - 6:10
03. The Nut's Off of the Screw (Tee-Withers) - 4:33
04. Tell It Like It Is (Davis-Diamond) - 4:33
05. Us (Tee-Gale) - 4:42
06. Back Door Man (Dixon) - 4:47
07. Spinning Song (Mendelssohn, arr. by Tee) - 4:43
 
Лог создания рипа
Exact Audio Copy V1.0 beta 3 from 29. August 2011
Отчёт EAC об извлечении, выполненном 23. января 2016, 12:47
Richard Tee / Natural Ingredients
Дисковод: Optiarc DVD RW AD-7203S Adapter: 0 ID: 1
Режим чтения : Достоверность
Использование точного потока : Да
Отключение кэша аудио : Да
Использование указателей C2 : Нет
Коррекция смещения при чтении : 48
Способность читать области Lead-in и Lead-out : Нет
Заполнение пропущенных сэмплов тишиной : Да
Удаление блоков с тишиной в начале и конце : Нет
При вычислениях CRC использовались нулевые сэмплы : Да
Интерфейс : Встроенный Win32-интерфейс для Win NT/2000
Выходной формат : Пользовательский кодировщик
Выбранный битрейт : 128 kBit/s
Качество : Высокий
Добавление ID3-тега : Нет
Утилита сжатия : C:\Program Files (x86)\Exact Audio Copy\Flac\flac.exe
Дополнительные параметры : -V -8 -T "Date=%year%" -T "Genre=%genre%" %source%
TOC извлечённого CD
Трек | Старт | Длительность | Начальный сектор | Конечный сектор
---------------------------------------------------------------------
1 | 0:00.00 | 6:07.48 | 0 | 27572
2 | 6:07.48 | 6:09.60 | 27573 | 55307
3 | 12:17.33 | 4:32.47 | 55308 | 75754
4 | 16:50.05 | 4:33.15 | 75755 | 96244
5 | 21:23.20 | 4:41.63 | 96245 | 117382
6 | 26:05.08 | 4:47.22 | 117383 | 138929
7 | 30:52.30 | 4:42.63 | 138930 | 160142
Характеристики диапазона извлечения и сообщения об ошибках
Выбранный диапазон
Имя файла C:\Users\Администратор\Music\Richard Tee - Natural Ingredients (1980)\Richard Tee - Natural Ingredients (1980).wav
Пиковый уровень 97.9 %
Скорость извлечения 3.5 X
Качество диапазона 100.0 %
CRC теста 61C50FE6
CRC копии 61C50FE6
Копирование... OK
Ошибок не произошло
Конец отчёта
==== Контрольная сумма отчёта D2E49D411C92EE1F35C0291FEAC5B6055D9AB9529F32A0064B54AFB7C7D660F5 ====
 
Содержание индексной карты (.CUE)
REM GENRE Jazz
REM DATE 1980
REM DISCID 60085707
REM COMMENT "ExactAudioCopy v1.0b3"
PERFORMER "Richard Tee"
TITLE "Natural Ingredients"
FILE "Richard Tee - Natural Ingredients.wav" WAVE
TRACK 01 AUDIO
TITLE "What a Woman Really Means"
PERFORMER "Richard Tee"
INDEX 01 00:00:00
TRACK 02 AUDIO
TITLE "Now"
PERFORMER "Richard Tee"
INDEX 00 06:06:12
INDEX 01 06:07:48
TRACK 03 AUDIO
TITLE "The Nut's Off of the Screw"
PERFORMER "Richard Tee"
INDEX 00 12:15:72
INDEX 01 12:17:33
TRACK 04 AUDIO
TITLE "Tell It Like It Is"
PERFORMER "Richard Tee"
INDEX 00 16:48:45
INDEX 01 16:50:05
TRACK 05 AUDIO
TITLE "Us"
PERFORMER "Richard Tee"
INDEX 00 21:21:60
INDEX 01 21:23:20
TRACK 06 AUDIO
TITLE "Back Door Man"
PERFORMER "Richard Tee"
INDEX 00 26:03:47
INDEX 01 26:05:08
TRACK 07 AUDIO
TITLE "Spinning Song"
PERFORMER "Richard Tee"
INDEX 00 30:50:70
INDEX 01 30:52:30
 
Отчет CUETools
[CUETools log; Date: 24.01.2016 17:22:41; Version: 2.1.5]
[CTDB TOCID: zmh45U8PtTvCZmgZ_xXG1qRYD4A-] found.
Track | CTDB Status
1 | (4/4) Accurately ripped
2 | (4/4) Accurately ripped
3 | (4/4) Accurately ripped
4 | (4/4) Accurately ripped
5 | (4/4) Accurately ripped
6 | (4/4) Accurately ripped
7 | (4/4) Accurately ripped
[AccurateRip ID: 000a3e69-003c7984-60085707] found.
Track [ CRC | V2 ] Status
01 [65d9e9f8|3dd4d31a] (0+0/2) No match
02 [4a140fde|3de62f89] (0+0/2) No match
03 [770b419f|00388cea] (0+0/2) No match
04 [1da784e4|fe9b459d] (0+0/2) No match
05 [b133273c|4d9be4f5] (0+0/2) No match
06 [7303b6e0|effc4c41] (0+0/2) No match
07 [b6cf3024|42ee8633] (0+0/2) No match
Offsetted by 1043:
01 [442c78ed] (1/2) Accurately ripped
02 [22e003d2] (1/2) Accurately ripped
03 [1eb6e0ff] (1/2) Accurately ripped
04 [87739918] (1/2) Accurately ripped
05 [8fc07b9d] (1/2) Accurately ripped
06 [552df454] (1/2) Accurately ripped
07 [d5d1a923] (1/2) Accurately ripped
Track Peak [ CRC32 ] [W/O NULL] [ LOG ]
-- 97,9 [61C50FE6] [F0666245] CRC32
01 97,9 [AF8AB41B] [AC67600E]
02 97,9 [AF61E3AF] [A4ED2492]
03 97,9 [C54F6F57] [034F141B]
04 97,9 [3871F4BD] [1D38E002]
05 97,9 [AA9E956F] [EF7A4286]
06 97,9 [8B803BD3] [850EA27D]
07 97,9 [E87F5EA5] [5540373E]
 
Состав
Richard Tee - keyboards, lead vocals (#1,3,4,6)
Steve Gadd - drums
Eric Gale - guitar, bass
Matthew Bragg - bass
Ralph MacDonald - percussion
Hugh McCracken - harmonica
Tom Scott - saxophone
Richard Tee, Valerie Simpson, Ullanda McCullough, Lani Groves - background vocals
Jon Faddis, Randy Brecker, Tom Scott, Barry Rogers, Seldon Powell - horns
Jonathan Abramowitz, Al Brown, Selwalt Clarke, Harry Cykman, Barry Finclair, Richard Locker, Charles McCracken, Kermit Moore, Jan Mullen, John Pintavalle, Joseph Rabushka, Herbert Sorkin - strings
David Nadien - concertmaster
Rhythm recorded at A&R Recording Studios, 48th Street, New York. Strings & horns recorded at A&R Recording Studios, Seventh Avenue, New York.
Приватный:
Нет (DHT включён)
Размер:
249.65 Мб (261,774,297 байт) » файлов: 15
Участники:
0 раздают, 0 качают (0 участников всего)
Внешние участники:
3 раздают, 1 качают (4 участников всего) [ Обновить ]
Есть вопросы - пишите личное сообщение пользователю M0p94ok.
09:39
66
Нет комментариев. Ваш будет первым!